<?xml version="1.0" standalone="no"?>
<!DOCTYPE svg PUBLIC "-//W3C//DTD SVG 1.1//EN" "http://www.w3.org/Graphics/SVG/1.1/DTD/svg11.dtd" >
<svg xmlns="http://www.w3.org/2000/svg">
<metadata></metadata>
<defs>
<font id="calendas_plusregular" horiz-adv-x="770" >
<font-face units-per-em="2048" ascent="1536" descent="-512" />
<missing-glyph horiz-adv-x="487" />
<glyph unicode="&#x2e;&#x2e;&#x2e;" horiz-adv-x="1759" d="M123 90q0 51 36 87t87 36t87 -36t36 -87t-36 -87t-87 -36t-87 36t-36 87zM758 90q0 51 36 87t87 36t87 -36t36 -87t-36 -87t-87 -36t-87 36t-36 87zM1391 90q0 51 35.5 87t86.5 36t87 -36t36 -87t-36 -87t-87 -36t-86.5 36t-35.5 87z" />
<glyph unicode="ff" horiz-adv-x="1378" d="M63 0v55l56 8q47 6 77.5 43.5t30.5 94.5v628h-135l-8 45q98 23 143 64v49q0 120 40.5 215t110 154t158 90t187.5 31q159 0 268 -76q115 135 307 135q117 0 181.5 -39t64.5 -96q0 -41 -30.5 -67.5t-69.5 -26.5l-21 2q-5 17 -15.5 36.5t-30 46t-52.5 43.5t-72 17 q-106 0 -159.5 -101t-53.5 -274v-155h328v-97h-328v-641q0 -69 20 -93.5t68 -27.5l111 -8v-55q-195 6 -285 6l-254 -6v55l56 8q47 6 77.5 43.5t30.5 94.5v624h-461v-641q0 -71 16 -94.5t64 -26.5l119 -8v-55q-195 6 -285 6zM403 922h461v94q0 105 31 207q-21 70 -75 120 t-146 50q-120 0 -195.5 -91t-75.5 -253v-127z" />
<glyph unicode="fi" horiz-adv-x="1288" d="M63 0v55l56 8q47 6 77.5 43.5t30.5 94.5v628h-135l-8 45q98 23 143 64v78q0 139 61 257t177 190.5t264 72.5q144 0 235 -48.5t91 -131.5q0 -54 -40.5 -89.5t-101.5 -35.5q-46 0 -90 22q6 33 6 70q0 14 -2 27t-12 33t-26.5 34t-48.5 24.5t-76 10.5q-122 0 -191.5 -103 t-69.5 -272v-155h326q83 0 168.5 7.5t129.5 14.5l44 8v-768q0 -72 15 -94t65 -27l66 -8v-55q-142 6 -234 6l-254 -6v55l57 8q47 6 78 43.5t31 94.5v489q0 69 -37 102t-125 33h-330v-641q0 -71 16 -94.5t64 -26.5l119 -8v-55q-195 6 -285 6z" />
<glyph unicode="fl" horiz-adv-x="1286" d="M63 0v55l56 8q47 6 77.5 43.5t30.5 94.5v628h-135l-8 45q98 23 143 64v78q0 138 62.5 256.5t179 191t260.5 72.5q121 0 197 -55q39 12 75.5 26t52.5 21l17 8v-1352q0 -71 15 -93t65 -28l66 -8v-55q-142 6 -234 6l-254 -6v55l57 8q47 6 78 43.5t31 94.5v1030q0 23 -3.5 46 t-17.5 56.5t-37 58t-68 42.5t-105 18q-121 0 -191 -103.5t-70 -271.5v-155h422v-97h-422v-641q0 -69 19.5 -93.5t69.5 -27.5l110 -8v-55q-195 6 -285 6z" />
<glyph unicode="ffi" horiz-adv-x="1925" d="M63 0v55l56 8q47 6 77.5 43.5t30.5 94.5v628h-135l-8 45q98 23 143 64v49q0 120 40.5 215t110 154t158 90t187.5 31q83 0 159 -23t128 -65q144 147 356 147q146 0 236 -46.5t90 -133.5q0 -54 -40.5 -89.5t-101.5 -35.5q-46 0 -90 22q6 33 6 70q0 18 -5 35.5t-19.5 41 t-51 38t-90.5 14.5q-122 0 -191 -103t-69 -272v-155h326q83 0 168.5 7.5t129.5 14.5l44 8v-768q0 -72 15 -94t65 -27l65 -8v-55q-141 6 -233 6l-254 -6v55l57 8q47 6 78 43.5t31 94.5v489q0 69 -37 102t-125 33h-330v-641q0 -71 16 -94.5t64 -26.5l119 -8v-55q-195 6 -285 6 l-254 -6v55l56 8q47 6 77.5 43.5t30.5 94.5v624h-461v-641q0 -71 16 -94.5t64 -26.5l119 -8v-55q-195 6 -285 6zM403 922h461v94q0 92 27 174q-4 27 -12 52t-25 53.5t-39.5 49.5t-59 34.5t-81.5 13.5q-120 0 -195.5 -91t-75.5 -253v-127z" />
<glyph unicode="ffl" horiz-adv-x="1882" d="M63 0v55l56 8q47 6 77.5 43.5t30.5 94.5v628h-135l-8 45q98 23 143 64v49q0 120 40.5 215t110 154t158 90t187.5 31q84 0 159.5 -24t125.5 -69q68 71 160 111.5t198 40.5q121 0 197 -55q39 12 75.5 26t53.5 21l16 8v-1352q0 -71 15 -93t65 -28l65 -8v-55q-141 6 -233 6 l-254 -6v55l57 8q47 6 78 43.5t31 94.5v1030q0 23 -3.5 46.5t-17.5 56.5t-37.5 57.5t-68.5 42.5t-105 18q-121 0 -190.5 -103t-69.5 -272v-155h422v-97h-422v-641q0 -69 19.5 -93.5t68.5 -27.5l111 -8v-55q-195 6 -285 6l-254 -6v55l56 8q47 6 77.5 43.5t30.5 94.5v624h-461 v-641q0 -71 16 -94.5t64 -26.5l119 -8v-55q-195 6 -285 6zM403 922h461v94q0 101 35 194q-20 76 -76 129.5t-149 53.5q-120 0 -195.5 -91t-75.5 -253v-127z" />
<glyph unicode="Th" horiz-adv-x="2267" d="M80 1159l22 307h50q2 -4 6 -9t25 -14t50 -9h877q81 0 172 25.5t142 50.5l51 26v-733q14 4 53 29.5t80 51.5t101 48t116 22q131 0 199.5 -75t68.5 -195v-500q0 -71 15 -93t65 -28l65 -8v-55q-137 6 -225 6l-246 -6v55l41 8q49 9 79 45t30 93v461q0 167 -160 167 q-63 0 -160.5 -40t-121.5 -44v-561q0 -72 14.5 -94t64.5 -27l66 -8v-55q-142 6 -234 6l-253 -6v55l57 8q47 6 77.5 43.5t30.5 94.5v1018q0 72 -35.5 101.5t-123.5 29.5h-348v-1147q0 -66 32 -94.5t99 -38.5l65 -11v-59q-139 6 -299 6l-291 -6v59l52 11q145 28 145 200v1080 h-135q-141 0 -218.5 -47.5t-109.5 -153.5z" />
<glyph unicode="&#x164;h" horiz-adv-x="2267" d="M80 1159l22 307h50q2 -4 6 -9t25 -14t50 -9h877q81 0 172 25.5t142 50.5l51 26v-733q14 4 53 29.5t80 51.5t101 48t116 22q131 0 199.5 -75t68.5 -195v-500q0 -71 15 -93t65 -28l65 -8v-55q-137 6 -225 6l-246 -6v55l41 8q49 9 79 45t30 93v461q0 167 -160 167 q-63 0 -160.5 -40t-121.5 -44v-561q0 -72 14.5 -94t64.5 -27l66 -8v-55q-142 6 -234 6l-253 -6v55l57 8q47 6 77.5 43.5t30.5 94.5v1018q0 72 -35.5 101.5t-123.5 29.5h-348v-1147q0 -66 32 -94.5t99 -38.5l65 -11v-59q-139 6 -299 6l-291 -6v59l52 11q145 28 145 200v1080 h-135q-141 0 -218.5 -47.5t-109.5 -153.5zM393 1806l113 72l215 -246q14 40 34.5 78.5t50.5 77t71 62.5t86 24q40 0 63 -18t25 -39l-330 -279z" />
<glyph unicode="&#x162;h" horiz-adv-x="2267" d="M80 1159l22 307h50q2 -4 6 -9t25 -14t50 -9h877q81 0 172 25.5t142 50.5l51 26v-733q14 4 53 29.5t80 51.5t101 48t116 22q131 0 199.5 -75t68.5 -195v-500q0 -71 15 -93t65 -28l65 -8v-55q-137 6 -225 6l-246 -6v55l41 8q49 9 79 45t30 93v461q0 167 -160 167 q-63 0 -160.5 -40t-121.5 -44v-561q0 -72 14.5 -94t64.5 -27l66 -8v-55q-142 6 -234 6l-253 -6v55l57 8q47 6 77.5 43.5t30.5 94.5v1018q0 72 -35.5 101.5t-123.5 29.5h-348v-1147q0 -66 32 -94.5t99 -38.5l65 -11v-59q-111 4 -246 6q-43 -25 -43 -76q0 -28 17.5 -51t43 -41 t51 -37.5t43 -50t17.5 -69.5q0 -70 -76 -117t-173 -47q-75 0 -125 28.5t-50 79.5q0 31 24.5 54.5t57.5 23.5q19 0 35 -8q-20 -24 -20 -55q0 -28 25 -46t79 -18q47 0 75 20t28 52q0 24 -25.5 49.5t-55.5 45.5t-55.5 54.5t-25.5 75.5q0 48 29.5 82.5t60.5 50.5l-281 -6v59 l52 11q145 28 145 200v1080h-135q-141 0 -218.5 -47.5t-109.5 -153.5z" />
<glyph unicode="fj" horiz-adv-x="1255" d="M63 0v55l56 8q47 6 77.5 43.5t30.5 94.5v628h-135l-8 45q98 23 143 64v78q0 139 61 257t177 190.5t264 72.5q144 0 235 -48.5t91 -131.5q0 -54 -40.5 -89.5t-101.5 -35.5q-46 0 -90 22q6 33 6 70q0 14 -2 27t-12 33t-26.5 34t-48.5 24.5t-76 10.5q-122 0 -191.5 -103 t-69.5 -272v-155h326q83 0 168.5 7.5t129.5 14.5l44 8v-837q0 -162 -23 -257t-90 -163q-54 -54 -167.5 -103.5t-133.5 -62.5l-26 41q20 15 73.5 49t83 61t52.5 68q36 63 45.5 126t9.5 181v647q0 123 -162 123h-330v-641q0 -71 16 -94.5t64 -26.5l119 -8v-55q-195 6 -285 6z " />
<glyph unicode="ffj" horiz-adv-x="1892" d="M63 0v55l56 8q47 6 77.5 43.5t30.5 94.5v628h-135l-8 45q98 23 143 64v49q0 120 40.5 215t110 154t158 90t187.5 31q81 0 158.5 -23t128.5 -65q140 147 356 147q144 0 235 -48.5t91 -131.5q0 -54 -40.5 -89.5t-101.5 -35.5q-46 0 -90 22q6 33 6 70q0 18 -5 35.5t-19.5 41 t-51 38t-90.5 14.5q-122 0 -191 -103t-69 -272v-155h326q83 0 168.5 7.5t129.5 14.5l44 8v-837q0 -162 -23 -257t-90 -163q-54 -54 -167.5 -103.5t-133.5 -62.5l-26 41q20 15 73.5 49t83 61t52.5 68q36 63 45.5 126t9.5 181v647q0 123 -162 123h-330v-641q0 -71 16 -94.5 t64 -26.5l119 -8v-55q-195 6 -285 6l-254 -6v55l56 8q47 6 77.5 43.5t30.5 94.5v624h-461v-641q0 -71 16 -94.5t64 -26.5l119 -8v-55q-195 6 -285 6zM403 922h461v94q0 94 27 176q-21 86 -72.5 143.5t-144.5 57.5q-120 0 -195.5 -91t-75.5 -253v-127z" />
<glyph unicode="fb" horiz-adv-x="1832" d="M63 0v55l56 8q47 6 77.5 43.5t30.5 94.5v628h-135l-8 45q98 23 143 64v78q0 138 62.5 256.5t179 191t260.5 72.5q121 0 197 -55q39 12 75.5 26t52.5 21l17 8v-709q26 8 62 30.5t66 43t79.5 37t103.5 16.5q180 0 282.5 -125.5t102.5 -330.5q0 -105 -35 -198.5 t-102.5 -168.5t-179 -119.5t-252.5 -44.5q-120 0 -221 37l-86 -59l-33 20q25 55 31 108t6 169v1003q0 24 -5 48.5t-20.5 54t-39.5 52t-67 37.5t-99 15q-121 0 -191 -103.5t-70 -271.5v-155h422v-97h-422v-641q0 -69 19.5 -93.5t69.5 -27.5l110 -8v-55q-195 6 -285 6z M1071 201q0 -71 42.5 -115.5t135.5 -44.5q140 0 238 108t98 293q0 77 -17 146t-51.5 126.5t-94.5 91.5t-138 34q-46 0 -121.5 -34.5t-91.5 -37.5v-567z" />
<glyph unicode="ffb" horiz-adv-x="2469" d="M63 0v55l56 8q47 6 77.5 43.5t30.5 94.5v628h-135l-8 45q98 23 143 64v49q0 120 40.5 215t110 154t158 90t187.5 31q84 0 159.5 -24t125.5 -69q145 152 358 152q121 0 197 -55q39 12 75.5 26t53.5 21l16 8v-709q26 8 62 30.5t66 43t79.5 37t103.5 16.5 q180 0 282.5 -125.5t102.5 -330.5q0 -105 -35 -198.5t-102.5 -168.5t-179 -119.5t-252.5 -44.5q-120 0 -221 37l-86 -59l-33 20q25 55 31 108t6 169v1003q0 24 -5 48.5t-20.5 54t-40 52t-67.5 37.5t-99 15q-121 0 -190.5 -103t-69.5 -272v-155h422v-97h-422v-641 q0 -69 19.5 -93.5t68.5 -27.5l111 -8v-55q-195 6 -285 6l-254 -6v55l56 8q47 6 77.5 43.5t30.5 94.5v624h-461v-641q0 -71 16 -94.5t64 -26.5l119 -8v-55q-195 6 -285 6zM403 922h461v94q0 108 37 198q-20 75 -77.5 127t-149.5 52q-120 0 -195.5 -91t-75.5 -253v-127z M1708 201q0 -71 42.5 -115.5t135.5 -44.5q140 0 238 108t98 293q0 77 -17 146t-51.5 126.5t-94.5 91.5t-138 34q-46 0 -121.5 -34.5t-91.5 -37.5v-567z" />
<glyph unicode="fh" horiz-adv-x="1863" d="M63 0v55l56 8q47 6 77.5 43.5t30.5 94.5v628h-135l-8 45q98 23 143 64v78q0 138 62.5 256.5t179 191t260.5 72.5q121 0 197 -55q39 12 75.5 26t52.5 21l17 8v-733q14 4 53 29.5t80 51.5t101 48t116 22q131 0 200 -75t69 -195v-500q0 -71 14.5 -93t64.5 -28l66 -8v-55 q-137 6 -225 6l-246 -6v55l41 8q49 9 78.5 45t29.5 93v461q0 167 -159 167q-63 0 -161 -40t-122 -44v-561q0 -72 15 -94t65 -27l66 -8v-55q-142 6 -234 6l-254 -6v55l57 8q47 6 78 43.5t31 94.5v1054q0 31 -11 62t-35 63t-72 52t-113 20q-121 0 -191 -103.5t-70 -271.5v-155 h422v-97h-422v-641q0 -69 19.5 -93.5t69.5 -27.5l110 -8v-55q-195 6 -285 6z" />
<glyph unicode="ffh" horiz-adv-x="2500" d="M63 0v55l56 8q47 6 77.5 43.5t30.5 94.5v628h-135l-8 45q98 23 143 64v49q0 120 40.5 215t110 154t158 90t187.5 31q84 0 159.5 -24t125.5 -69q145 152 358 152q121 0 197 -55q108 35 145 55v-733q14 4 53 29.5t80 51.5t101 48t116 22q131 0 200 -75t69 -195v-500 q0 -71 14.5 -93t64.5 -28l66 -8v-55q-137 6 -225 6l-246 -6v55l41 8q49 9 78.5 45t29.5 93v461q0 167 -159 167q-63 0 -161 -40t-122 -44v-561q0 -72 15 -94t65 -27l65 -8v-55q-141 6 -233 6l-254 -6v55l57 8q47 6 78 43.5t31 94.5v1044q0 24 -5 48.5t-20.5 54t-40 52 t-67.5 37.5t-99 15q-121 0 -190.5 -103t-69.5 -272v-155h422v-97h-422v-641q0 -69 19.5 -93.5t68.5 -27.5l111 -8v-55q-195 6 -285 6l-254 -6v55l56 8q47 6 77.5 43.5t30.5 94.5v624h-461v-641q0 -71 16 -94.5t64 -26.5l119 -8v-55q-195 6 -285 6zM403 922h461v94 q0 108 37 198q-20 75 -77.5 127t-149.5 52q-120 0 -195.5 -91t-75.5 -253v-127z" />
<glyph unicode="fk" horiz-adv-x="1816" d="M63 0v55l56 8q47 6 77.5 43.5t30.5 94.5v628h-135l-8 45q98 23 143 64v78q0 138 62.5 256.5t179 191t260.5 72.5q121 0 197 -55q39 12 75.5 26t52.5 21l17 8v-997h92l156 206q20 30 20 58q0 47 -82 57l-43 6v56q105 -7 279 -7q70 0 136.5 1.5t98.5 3.5l31 2v-56l-47 -4 q-109 -10 -178 -37.5t-123 -93.5l-133 -168l293 -381q53 -68 97.5 -95.5t105.5 -27.5q29 0 57 7v-46q-58 -34 -150 -34q-107 0 -182.5 50.5t-152.5 158.5l-168 237q-19 27 -43 39t-64 12v-299q0 -70 15.5 -92.5t64.5 -28.5l66 -8v-55q-109 6 -232 6q-68 0 -131.5 -1.5 t-93.5 -2.5l-29 -2v55l55 8q47 6 78 43.5t31 94.5v1065q0 30 -12 60.5t-37.5 59.5t-72.5 47.5t-109 18.5q-121 0 -191 -103.5t-70 -271.5v-155h422v-97h-422v-641q0 -69 19.5 -93.5t69.5 -27.5l110 -8v-55q-195 6 -285 6z" />
<glyph unicode="ffk" horiz-adv-x="2453" d="M63 0v55l56 8q47 6 77.5 43.5t30.5 94.5v628h-135l-8 45q98 23 143 64v49q0 120 40.5 215t110 154t158 90t187.5 31q84 0 159.5 -24t125.5 -69q145 152 358 152q121 0 197 -55q68 15 145 55v-997h92l156 206q20 30 20 58q0 47 -82 57l-43 6v56q105 -7 279 -7 q70 0 136.5 1.5t97.5 3.5l32 2v-56l-47 -4q-109 -10 -178 -37.5t-123 -93.5l-133 -168l293 -381q53 -68 97 -95.5t105 -27.5q30 0 58 7v-46q-58 -34 -150 -34q-107 0 -183 50.5t-153 158.5l-167 237q-19 27 -43 39t-64 12v-299q0 -70 15.5 -92.5t64.5 -28.5l65 -8v-55 q-108 6 -231 6q-68 0 -131.5 -1.5t-92.5 -2.5l-30 -2v55l55 8q47 6 78 43.5t31 94.5v1054q0 30 -11 61.5t-35.5 63.5t-72.5 52t-113 20q-121 0 -190.5 -103t-69.5 -272v-155h422v-97h-422v-641q0 -69 19.5 -93.5t68.5 -27.5l111 -8v-55q-195 6 -285 6l-254 -6v55l56 8 q47 6 77.5 43.5t30.5 94.5v624h-461v-641q0 -71 16 -94.5t64 -26.5l119 -8v-55q-195 6 -285 6zM403 922h461v94q0 108 37 198q-20 75 -77.5 127t-149.5 52q-120 0 -195.5 -91t-75.5 -253v-127z" />
<glyph unicode="fr" horiz-adv-x="1515" d="M63 0v55l56 8q47 6 77.5 43.5t30.5 94.5v628h-135l-8 45q98 23 143 64v78q0 101 27 192.5t78.5 165.5t137 118t192.5 44q117 0 181 -39t64 -96q0 -41 -30.5 -67.5t-69.5 -26.5l-21 2q-5 17 -15.5 36.5t-30 46t-52.5 43.5t-72 17q-106 0 -159.5 -101t-53.5 -274v-200 l326 12q98 4 183.5 19.5t121.5 29.5l37 14v-164q11 2 40 29t60.5 57t79 55t92.5 25q68 0 107 -34.5t39 -94.5q0 -52 -31.5 -83t-81.5 -31q-26 0 -59 10q6 18 6 41q0 27 -18 44t-56 17q-30 0 -64.5 -20t-66 -44t-47.5 -28v-547q0 -72 15 -94t65 -27l96 -8v-55q-104 6 -264 6 q-65 0 -128.5 -1.5t-94.5 -2.5l-31 -2v55l57 8q47 6 78 43.5t31 94.5v489q0 66 -33 94.5t-119 28.5h-340v-629q0 -69 20 -93.5t69 -27.5l110 -8v-55q-195 6 -285 6z" />
<glyph unicode="ffr" horiz-adv-x="2152" d="M63 0v55l56 8q47 6 77.5 43.5t30.5 94.5v628h-135l-8 45q98 23 143 64v49q0 120 40.5 215t110 154t158 90t187.5 31q162 0 266 -78q114 137 309 137q117 0 181.5 -39t64.5 -96q0 -41 -30.5 -67.5t-69.5 -26.5l-21 2q-5 17 -15.5 36.5t-30 46t-52.5 43.5t-72 17 q-106 0 -159.5 -101t-53.5 -274v-200l326 12q98 4 183.5 19.5t122.5 29.5l36 14v-164q11 2 40 29t60.5 57t79 55t92.5 25q68 0 107 -34.5t39 -94.5q0 -52 -31.5 -83t-81.5 -31q-26 0 -59 10q6 18 6 41q0 27 -18 44t-56 17q-30 0 -64.5 -20t-66 -44t-47.5 -28v-547 q0 -72 15 -94t65 -27l96 -8v-55q-104 6 -264 6q-65 0 -128.5 -1.5t-94.5 -2.5l-31 -2v55l57 8q47 6 78 43.5t31 94.5v489q0 66 -33 94.5t-119 28.5h-340v-629q0 -69 20 -93.5t68 -27.5l111 -8v-55q-195 6 -285 6l-254 -6v55l56 8q47 6 77.5 43.5t30.5 94.5v624h-461v-641 q0 -71 16 -94.5t64 -26.5l119 -8v-55q-195 6 -285 6zM403 903h461v113q0 117 33 215q-25 71 -82 116.5t-141 45.5q-120 0 -195.5 -91t-75.5 -253v-146z" />
<glyph unicode="ft" horiz-adv-x="1449" d="M63 0v55l56 8q47 6 77.5 43.5t30.5 94.5v628h-135l-8 45q98 23 143 64v78q0 101 27 192.5t78.5 165.5t137 118t192.5 44q117 0 181 -39t64 -96q0 -41 -30.5 -67.5t-69.5 -26.5l-21 2q-5 17 -15.5 36.5t-30 46t-52.5 43.5t-72 17q-106 0 -159.5 -101t-53.5 -274v-184 l338 12q91 3 165 72t116 162l49 -15v-202h315v-97h-315v-575q0 -73 37 -120.5t117 -47.5q55 0 103.5 8t69.5 16l21 9l6 -49q-111 -99 -280 -99q-116 0 -183 68t-67 194v600h-492v-645q0 -69 20 -93.5t69 -27.5l110 -8v-55q-195 6 -285 6z" />
<glyph unicode="fft" horiz-adv-x="2086" d="M63 0v55l56 8q47 6 77.5 43.5t30.5 94.5v628h-135l-8 45q98 23 143 64v49q0 120 40.5 215t110 154t158 90t187.5 31q159 0 268 -76q115 135 307 135q117 0 181.5 -39t64.5 -96q0 -41 -30.5 -67.5t-69.5 -26.5l-21 2q-5 17 -15.5 36.5t-30 46t-52.5 43.5t-72 17 q-106 0 -159.5 -101t-53.5 -274v-184l338 12q91 3 165 72t116 162l49 -15v-202h315v-97h-315v-575q0 -73 37 -120.5t117 -47.5q55 0 103.5 8t69.5 16l21 9l6 -49q-111 -99 -280 -99q-116 0 -183 68t-67 194v600h-492v-645q0 -69 20 -93.5t68 -27.5l111 -8v-55q-195 6 -285 6 l-254 -6v55l56 8q47 6 77.5 43.5t30.5 94.5v624h-461v-641q0 -71 16 -94.5t64 -26.5l119 -8v-55q-195 6 -285 6zM403 922h461v94q0 106 31 211q-57 166 -221 166q-120 0 -195.5 -91t-75.5 -253v-127z" />
<glyph unicode="fy" horiz-adv-x="1720" d="M63 0v55l56 8q47 6 77.5 43.5t30.5 94.5v628h-135l-8 45q98 23 143 64v78q0 101 27 192.5t78.5 165.5t137 118t192.5 44q117 0 181 -39t64 -96q0 -41 -30.5 -67.5t-69.5 -26.5l-21 2q-5 17 -15.5 36.5t-30 46t-52.5 43.5t-72 17q-106 0 -159.5 -101t-53.5 -274v-155 q162 -2 285 -3.5t173.5 -2.5t74.5 -1l207 7v-56l-51 -8q-62 -9 -62 -47q0 -15 4 -29l183 -589l225 577q10 30 10 39q0 40 -53 49l-56 8v56q86 -7 195 -7q40 0 79.5 1.5t58.5 3.5l20 2v-56l-31 -6q-48 -10 -81.5 -38t-57.5 -85l-383 -907q-57 -136 -136.5 -210.5 t-195.5 -74.5q-100 0 -144 41.5t-44 98.5q0 38 28.5 66t81.5 28q25 0 33 -4q-4 -12 -4 -23q0 -80 92 -80q150 0 223 185l51 127l-264 747q-23 65 -50 86t-71 23l-340 12v-668q0 -69 20 -93.5t69 -27.5l110 -8v-55q-195 6 -285 6z" />
<glyph unicode="ffy" horiz-adv-x="2359" d="M63 0v55l56 8q47 6 77.5 43.5t30.5 94.5v628h-135l-8 45q98 23 143 64v49q0 120 40.5 215t110 154t158 90t187.5 31q159 0 268 -76q115 135 307 135q117 0 181.5 -39t64.5 -96q0 -41 -30.5 -67.5t-69.5 -26.5l-21 2q-5 17 -15.5 36.5t-30 46t-52.5 43.5t-72 17 q-106 0 -159.5 -101t-53.5 -274v-155h740v-56l-51 -8q-62 -9 -62 -47q0 -15 4 -29l182 -589l226 577q10 30 10 39q0 40 -53 49l-56 8v56q86 -7 195 -7q40 0 79.5 1.5t59.5 3.5l19 2v-56l-31 -6q-48 -10 -81.5 -38t-57.5 -85l-383 -907q-57 -136 -136.5 -210.5t-195.5 -74.5 q-100 0 -144 41.5t-44 98.5q0 38 28.5 66t81.5 28q25 0 33 -4q-4 -12 -4 -23q0 -80 92 -80q150 0 223 185l51 127l-256 733q-23 65 -69 88.5t-119 23.5h-281v-645q0 -69 20 -93.5t68 -27.5l111 -8v-55q-195 6 -285 6l-254 -6v55l56 8q47 6 77.5 43.5t30.5 94.5v628h-461 v-645q0 -71 16 -94.5t64 -26.5l119 -8v-55q-195 6 -285 6zM403 922h461v94q0 105 31 207q-21 74 -76.5 122t-144.5 48q-120 0 -195.5 -91t-75.5 -253v-127z" />
<glyph horiz-adv-x="0" />
<glyph horiz-adv-x="0" />
<glyph unicode="&#xd;" horiz-adv-x="487" />
<glyph unicode=" "  horiz-adv-x="487" />
<glyph unicode="&#x09;" horiz-adv-x="487" />
<glyph unicode="&#xa0;" horiz-adv-x="487" />
<glyph unicode="!" horiz-adv-x="565" d="M158 1337q0 53 36 89t89 36t89 -36t36 -89q0 -126 -47.5 -423t-47.5 -435l4 -96h-69q4 37 4 96q0 138 -47 435t-47 423zM160 90q0 51 36 87t87 36t87 -36t36 -87t-36 -87t-87 -36t-87 36t-36 87z" />
<glyph unicode="&#x22;" horiz-adv-x="641" d="M106 1372q0 34 23 57t57 23t57 -23t23 -57q0 -73 -26.5 -189t-26.5 -206l2 -55h-57q2 28 2 55q0 90 -27 206t-27 189zM375 1372q0 34 23 57t57 23t57 -23t23 -57q0 -73 -27 -189t-27 -206l2 -55h-57q2 28 2 55q0 90 -26.5 206t-26.5 189z" />
<glyph unicode="#" horiz-adv-x="1282" d="M43 334l33 119h225l105 372h-216l31 117h219l95 340h116l-92 -340h315l93 340h116l-92 -340h248l-31 -117h-254l-102 -372h240l-33 -119h-246l-88 -334h-115l88 334h-317l-90 -334h-117l90 334h-221zM418 453h319l101 372h-316z" />
<glyph unicode="$" horiz-adv-x="1044" d="M68 225q0 54 35.5 88t107.5 37q0 -91 24 -159.5t81.5 -112t144.5 -43.5l45 518q-60 32 -101.5 58t-91.5 66.5t-80.5 81.5t-51.5 98.5t-21 121.5q0 153 104 256.5t295 110.5l12 235h82l-18 -238q134 -5 237 -71t103 -160q0 -44 -40.5 -80t-105.5 -43q0 245 -198 271 l-41 -486q48 -23 78.5 -39t74 -42.5t72 -50t60 -57t50 -68.5t30.5 -80t12 -95q0 -174 -126 -277.5t-313 -103.5q-13 -186 -14 -229h-82l21 231q-166 0 -275.5 81.5t-109.5 180.5zM313 1053q0 -79 55.5 -136t157.5 -110l29 459q-113 -4 -177.5 -62.5t-64.5 -150.5zM541 37 q109 0 186.5 63.5t77.5 167.5q0 76 -57 134.5t-173 121.5q-12 -152 -34 -487z" />
<glyph unicode="%" horiz-adv-x="1552" d="M72 975q0 89 37 165.5t114 126.5t178 50q132 0 210.5 -89t78.5 -222q0 -62 -19.5 -121t-57.5 -110t-103.5 -82t-149.5 -31q-123 0 -205.5 85t-82.5 228zM225 999q0 -117 49.5 -190.5t118.5 -73.5q67 0 105.5 65.5t38.5 178.5q0 103 -46 183.5t-124 80.5q-72 0 -107 -68 t-35 -176zM307 -51q327 518 436 694l392 657h131q-322 -516 -428 -690l-398 -661h-133zM860 242q0 89 37.5 165.5t114.5 126.5t178 50q131 0 210 -89.5t79 -222.5q0 -62 -19.5 -121t-57.5 -110t-103.5 -82t-149.5 -31q-123 0 -206 85.5t-83 228.5zM1014 266 q0 -117 49.5 -190.5t118.5 -73.5q67 0 105 65.5t38 178.5q0 103 -46 183.5t-124 80.5q-72 0 -106.5 -68t-34.5 -176z" />
<glyph unicode="&#x26;" horiz-adv-x="1486" d="M80 254q0 75 36 141.5t92.5 113t111.5 77t108 47.5q-15 20 -50 64.5t-50 64.5t-39.5 58.5t-35 66.5t-19.5 67t-9 80q0 99 42.5 182.5t111 136t151.5 81t168 28.5q142 0 230 -49t88 -145q0 -58 -43 -101t-107 -43q-57 0 -102 25q37 45 37 104q0 131 -170 131 q-29 0 -59.5 -6.5t-65.5 -25t-61.5 -46.5t-44 -76.5t-17.5 -109.5q0 -93 33.5 -164t103.5 -151l428 -488q63 75 102.5 174t39.5 185q0 54 -30 84.5t-95 44.5l-60 12v60q103 -7 279 -7q76 0 139.5 2t88.5 4l26 1v-60l-47 -10q-76 -17 -124 -62.5t-81 -126.5 q-96 -237 -189 -350q137 -170 314 -170q95 0 168 49l20 -34q-58 -72 -140 -108t-163 -36q-186 0 -344 168q-7 -5 -42 -31t-49 -35t-48.5 -30.5t-61 -30.5t-66.5 -21t-84 -17t-95 -5q-145 0 -235.5 80t-90.5 207zM268 315q0 -97 70 -153t182 -56q152 0 279 84l-334 402 q-79 -44 -138 -116.5t-59 -160.5z" />
<glyph unicode="'" horiz-adv-x="372" d="M106 1372q0 34 23 57t57 23t57 -23t23 -57q0 -73 -26.5 -189t-26.5 -206l2 -55h-57q2 28 2 55q0 90 -27 206t-27 189z" />
<glyph unicode="(" horiz-adv-x="747" d="M106 618q0 133 32 262t82.5 231.5t120 198.5t137.5 165.5t143 128.5l34 -33q-376 -428 -376 -953q0 -524 376 -952l-34 -33q-75 60 -143 129t-137.5 164.5t-120 198.5t-82.5 231.5t-32 261.5z" />
<glyph unicode=")" horiz-adv-x="747" d="M92 -334q377 429 377 952q0 524 -377 953l35 33q75 -59 143 -128.5t137.5 -165.5t119.5 -198.5t82 -231.5t32 -262t-32 -261.5t-82 -231.5t-119.5 -198.5t-137.5 -165t-143 -128.5z" />
<glyph unicode="*" horiz-adv-x="727" d="M92 1030q0 28 27 45q25 16 55 28t79.5 28.5t74.5 25.5q-25 9 -74.5 25.5t-79.5 28.5t-55 28q-27 17 -27 45q0 23 15 38t36 15q13 0 25 -6q78 -45 174 -141q-4 27 -12.5 76.5t-12.5 83t-4 63.5q0 20 14.5 34.5t34.5 14.5q23 0 38.5 -14.5t15.5 -34.5q0 -30 -4.5 -63 t-14.5 -83.5t-14 -76.5q96 96 174 141q12 6 25 6q21 0 36 -15t15 -38q0 -28 -27 -45q-25 -16 -55 -28t-79.5 -28.5t-74.5 -25.5q25 -9 74.5 -25.5t79.5 -28.5t55 -28q27 -17 27 -45q0 -23 -15 -38t-36 -15q-13 0 -25 6q-78 45 -174 141q4 -26 14 -76.5t14.5 -83.5t4.5 -63 q0 -20 -15.5 -34.5t-38.5 -14.5q-20 0 -34.5 14.5t-14.5 34.5q0 30 4 63.5t12.5 83t12.5 76.5q-96 -96 -174 -141q-12 -6 -25 -6q-21 0 -36 15t-15 38z" />
<glyph unicode="+" horiz-adv-x="933" d="M0 391v121h408v408h120v-408h406v-121h-406v-391h-120v391h-408z" />
<glyph unicode="," horiz-adv-x="491" d="M55 -295q77 29 123.5 90.5t46.5 132.5q0 114 -102 158q0 55 33 91t86 36q60 0 96.5 -46t36.5 -126q0 -144 -90.5 -242t-216.5 -125z" />
<glyph unicode="-" horiz-adv-x="729" d="M72 479q91 71 225 134t254 63q53 0 79.5 -25.5t26.5 -66.5q0 -17 -4 -25l-557 -115z" />
<glyph unicode="." horiz-adv-x="491" d="M123 90q0 51 36 87t87 36t87 -36t36 -87t-36 -87t-87 -36t-87 36t-36 87z" />
<glyph unicode="/" horiz-adv-x="841" d="M49 -344q224 675 318 973q43 133 115 376t122 420l51 177h136q-224 -675 -318 -973q-43 -133 -115 -376t-123 -420l-51 -177h-135z" />
<glyph unicode="0" horiz-adv-x="1241" d="M76 465q0 84 24.5 164.5t74 150t118 122.5t162.5 83.5t202 30.5q139 0 253.5 -59t184.5 -175t70 -268q0 -106 -39.5 -203.5t-111 -174.5t-182.5 -123t-244 -46q-142 0 -257 58t-185 173t-70 267zM291 508q0 -107 30 -195.5t80 -145t113 -87.5t131 -31q156 0 231.5 115 t75.5 305q0 107 -30 196.5t-80 147t-113.5 89.5t-132.5 32q-80 0 -139.5 -32.5t-95.5 -91t-53 -134t-17 -168.5z" />
<glyph unicode="1" horiz-adv-x="788" d="M94 0v59l62 9q161 21 161 204v428q0 74 -25 108t-77 40l-113 14v60q163 5 304 28q73 12 138.5 27t94.5 24l29 9l14 -68l-74 -33q-72 -32 -99.5 -88.5t-27.5 -171.5v-456q0 -115 119 -125l96 -9v-59q-127 6 -299 6z" />
<glyph unicode="2" horiz-adv-x="1021" d="M82 49l395 357q96 85 140.5 152t44.5 155q0 74 -54.5 131t-144.5 57q-93 0 -141 -50.5t-48 -129.5q0 -31 13 -72q-34 -12 -64 -12q-53 0 -85 31t-32 84q0 97 112 180.5t294 83.5q151 0 248.5 -80t97.5 -201q0 -52 -16 -101t-51.5 -97.5t-79 -92.5t-113 -97t-138 -99.5 t-167.5 -110.5l338 15q114 4 172.5 44.5t99.5 135.5l41 -10l-94 -322h-750z" />
<glyph unicode="3" horiz-adv-x="976" d="M61 752q0 97 112 180.5t294 83.5q155 0 246.5 -79.5t91.5 -191.5q0 -108 -84.5 -206t-247.5 -148l2 -8q41 6 78 6q139 0 231.5 -77.5t92.5 -194.5q0 -121 -63 -216.5t-174 -155.5t-251.5 -93t-306.5 -39l-10 68q169 12 305 67.5t213.5 142.5t77.5 189q0 101 -78 160 t-203 59q-36 0 -72.5 -5t-54.5 -10l-18 -5l-15 83q40 14 69 24.5t71.5 30t73 38.5t63.5 47t54 59t34.5 72.5t13.5 87.5q0 34 -9 64t-29.5 57t-58.5 43t-91 16q-93 0 -141 -50.5t-48 -129.5q0 -31 13 -72q-35 -12 -64 -12q-53 0 -85 31t-32 84z" />
<glyph unicode="4" horiz-adv-x="1177" d="M76 68l356 493q90 127 90 250q0 94 -61 158q15 19 42.5 33t59.5 14q69 0 111.5 -50.5t42.5 -119.5q0 -95 -47 -181.5t-158 -201.5l-313 -326h460v295l166 70v-365h275v-117h-275v-415h-166v415h-557z" />
<glyph unicode="5" horiz-adv-x="995" d="M-51 -203q0 48 32 80.5t91 32.5q16 0 26 -2q-4 -28 -4 -47q0 -69 39 -114.5t127 -45.5q99 0 179.5 54.5t124.5 144.5t44 196q0 116 -65 201t-165 124.5t-220 39.5l104 530h422q154 0 225 172l41 -8l-86 -309h-547l-43 -232q147 0 267 -57t190 -163t70 -240 q0 -151 -74.5 -274.5t-204.5 -193t-289 -69.5q-136 0 -210 58t-74 122z" />
<glyph unicode="6" horiz-adv-x="1122" d="M127 440q0 156 51 295t133.5 240t192.5 181.5t223.5 130t230.5 75.5l23 -59q-119 -39 -221 -100.5t-174 -132.5t-126.5 -152.5t-84.5 -159.5t-41 -154q17 2 53 22.5t73 44t92 43t107 19.5q142 0 245.5 -92.5t103.5 -253.5q0 -101 -42 -183.5t-109.5 -132t-145 -76 t-154.5 -26.5q-103 0 -186.5 39.5t-136 106t-80 150t-27.5 175.5zM324 422q0 -174 71 -275.5t189 -101.5q99 0 162 84t63 215q0 124 -69 199t-175 75q-58 0 -132 -32.5t-103 -38.5q-6 -41 -6 -125z" />
<glyph unicode="7" horiz-adv-x="1044" d="M68 641l82 350h847l19 -35l-434 -655q-148 -222 -148 -397q0 -137 90 -232q-58 -43 -127 -43q-73 0 -126.5 63t-53.5 154q0 105 52.5 206.5t187.5 279.5l399 526l-471 -18q-112 -4 -182 -63t-94 -144z" />
<glyph unicode="8" horiz-adv-x="1064" d="M113 276q0 76 33.5 139t74 97t96 76.5t78.5 68.5q-72 50 -113.5 84t-77 76t-49.5 88t-14 105q0 148 118 240.5t298 92.5q160 0 272.5 -83t112.5 -213q0 -63 -21 -116.5t-55 -90.5t-67.5 -63.5t-69.5 -51.5t-49 -39q11 -6 29.5 -17t65.5 -47t82.5 -75t65 -99t29.5 -120 q0 -74 -27.5 -136.5t-72.5 -104t-102.5 -70t-115.5 -41.5t-114 -13q-110 0 -201 35.5t-148.5 108t-57.5 169.5zM283 276q0 -104 68 -170.5t167 -66.5q100 0 172 62.5t72 154.5q0 42 -17 85t-44.5 78t-61 68t-66.5 57.5t-60.5 43t-44.5 28.5l-17 9q-11 -15 -46 -58.5 t-48.5 -64.5t-35 -60t-30 -79t-8.5 -87zM322 1055q0 -41 17 -80t40.5 -69t68.5 -66.5t80.5 -61t96.5 -63.5q15 23 47 62.5t50 66.5t34 78.5t16 115.5q0 90 -63 158t-156 68q-98 0 -164.5 -58.5t-66.5 -150.5z" />
<glyph unicode="9" horiz-adv-x="1122" d="M115 598q0 101 42 183.5t109 132t144.5 76t154.5 26.5q103 0 186.5 -39.5t136 -106t80 -150t27.5 -175.5q0 -156 -51 -295t-133.5 -240t-192.5 -181.5t-223.5 -130t-230.5 -75.5l-23 60q119 39 221 100.5t174 132.5t126.5 152.5t84.5 159t41 153.5q-17 -2 -53 -22.5 t-73 -44t-92 -43t-107 -19.5q-91 0 -168.5 38t-128.5 118.5t-51 189.5zM313 641q0 -124 69 -199t175 -75q58 0 132.5 32.5t103.5 38.5q6 41 6 125q0 174 -71 275.5t-189 101.5q-99 0 -162.5 -84t-63.5 -215z" />
<glyph unicode=":" horiz-adv-x="491" d="M123 90q0 51 36 87t87 36t87 -36t36 -87t-36 -87t-87 -36t-87 36t-36 87zM123 725q0 51 36 87t87 36t87 -36t36 -87t-36 -87t-87 -36t-87 36t-36 87z" />
<glyph unicode=";" horiz-adv-x="491" d="M55 -295q77 29 123.5 90.5t46.5 132.5q0 114 -102 158q0 55 33 91t86 36q60 0 96.5 -46t36.5 -126q0 -144 -90.5 -242t-216.5 -125zM123 725q0 51 36 87t87 36t87 -36t36 -87t-36 -87t-87 -36t-87 36t-36 87z" />
<glyph unicode="&#x3c;" horiz-adv-x="1136" d="M119 385v133l882 385v-141l-731 -311l731 -310v-141z" />
<glyph unicode="=" horiz-adv-x="935" d="M0 190v121h936v-121h-936zM0 590v121h936v-121h-936z" />
<glyph unicode="&#x3e;" horiz-adv-x="1116" d="M119 0v141l731 310l-731 311v141l882 -385v-131z" />
<glyph unicode="?" horiz-adv-x="960" d="M135 1298q0 76 77.5 120t215.5 44q174 0 285.5 -98t111.5 -248q0 -63 -21.5 -119.5t-56 -99.5t-76 -83.5t-82.5 -77.5t-75.5 -74t-56 -81.5t-21.5 -91.5q0 -59 25 -104h-47q-95 115 -95 223q0 58 21 109t55 89.5t74.5 75t81.5 72.5t75 73.5t55 86t21 103.5 q0 62 -67 106.5t-180 44.5q-127 0 -127 -86q0 -16 3.5 -32t6.5 -24l4 -9q-37 -15 -78 -15q-55 0 -92 27t-37 69zM315 90q0 51 36 87t87 36t87 -36t36 -87t-36 -87t-87 -36t-87 36t-36 87z" />
<glyph unicode="@" horiz-adv-x="1634" d="M102 465q0 106 33.5 217.5t105.5 219.5t171 192t243 136t310 52q136 0 251 -41t192.5 -111.5t121 -164.5t43.5 -199q0 -126 -51 -233t-134 -176t-188 -107.5t-215 -38.5q-96 0 -96 88q0 18 3 37.5t9 40t10.5 34t12.5 34.5t10 26h-8q-117 -260 -281 -260q-67 0 -101 47.5 t-34 124.5q0 121 61.5 240t164 196.5t212.5 77.5q63 0 119 -45q9 28 32.5 57t55.5 29t59 -23q-43 -48 -126.5 -257.5t-83.5 -311.5q0 -25 6.5 -37t29.5 -12q63 0 124 15t119 50.5t101.5 87t70 131t26.5 177.5q0 195 -141.5 322.5t-393.5 127.5q-109 0 -207.5 -33t-173 -89.5 t-135.5 -130t-100 -156.5t-59.5 -167.5t-20.5 -164.5q0 -95 21.5 -180t70.5 -160.5t121.5 -130t181 -86t242.5 -31.5q136 0 246 38.5t163 84.5q2 -4 2 -14q0 -42 -66.5 -84.5t-177.5 -70.5t-229 -28q-335 0 -529 175.5t-194 484.5zM631 414q0 -61 14.5 -87t54.5 -26 q61 0 131 88t118.5 192.5t72.5 192.5q-28 66 -104 66q-77 0 -144.5 -65.5t-105 -163.5t-37.5 -197z" />
<glyph unicode="A" horiz-adv-x="1486" d="M31 0v59l53 11q62 11 97 54.5t67 131.5l436 1198l80 12l479 -1269q44 -113 143 -127l70 -11v-59q-120 8 -278 8q-86 0 -160.5 -2t-106.5 -4l-32 -2v59l53 11q58 10 81 31.5t23 60.5q0 34 -26 104l-99 271h-462l-107 -320q-12 -37 -12 -65q0 -37 23.5 -55t88.5 -27l78 -11 v-59q-131 6 -289 6q-54 0 -104 -1.5t-73 -2.5zM475 621h406l-201 577z" />
<glyph unicode="B" horiz-adv-x="1234" d="M100 0v59l54 11q133 24 133 200v961q0 68 -26.5 96t-92.5 37l-68 10v60q113 -7 289 -7q57 0 128.5 3.5t105.5 3.5q205 0 316.5 -88t111.5 -232q0 -66 -19.5 -121t-48 -91.5t-68 -65.5t-73.5 -44t-70 -26q175 -30 281 -137.5t106 -245.5q0 -171 -119 -277t-340 -106 q-47 0 -148.5 3t-170.5 3q-77 0 -147.5 -1.5t-101.5 -2.5zM483 203q0 -64 43.5 -98.5t114.5 -34.5q139 0 222 82.5t83 212.5q0 67 -18.5 122.5t-47.5 91.5t-69.5 63t-79 41t-82 23t-72 11t-55.5 2l-39 -2v-514zM483 778q50 6 99 6l110 -6q76 52 119 139t43 195 q0 115 -73 183.5t-191 68.5q-53 0 -107 -14v-572z" />
<glyph unicode="C" horiz-adv-x="1478" d="M80 682q0 154 52.5 293.5t148.5 248.5t246.5 173.5t332.5 64.5q98 0 263 -27.5t225 -27.5v-330h-60q-28 140 -150 222.5t-317 82.5q-155 0 -276 -84.5t-185.5 -229.5t-64.5 -325q0 -134 32 -247.5t88.5 -195t133 -138.5t166 -85t186.5 -28q169 0 276.5 85.5t137.5 225.5 l59 -4l-37 -311q-58 0 -136.5 -19.5t-172 -39t-188.5 -19.5q-126 0 -237.5 25t-208 80.5t-166 138t-109 202.5t-39.5 269z" />
<glyph unicode="D" horiz-adv-x="1593" d="M102 0v59l54 11q133 24 133 200v961q0 68 -26.5 96t-92.5 37l-68 10v60q158 -7 289 -7q68 0 172 3.5t168 3.5q160 0 290.5 -35t221 -96.5t152 -148t90 -187.5t28.5 -217q0 -157 -52.5 -292t-153 -238t-257.5 -161.5t-354 -58.5q-53 0 -140.5 3t-172.5 3zM485 203 q0 -64 43.5 -98.5t114.5 -34.5q80 0 146.5 6.5t135.5 24t122.5 47t102 77t80 111t50 153t18.5 199.5q0 139 -45 261.5t-127 215t-207.5 146t-277.5 53.5q-102 0 -156 -14v-1147z" />
<glyph unicode="E" horiz-adv-x="1171" d="M100 0v59l54 11q133 24 133 200v961q0 68 -26.5 96t-92.5 37l-68 10v60q193 -7 289 -7q150 0 311 1.5t246 3.5l86 2v-336h-49q-22 121 -113.5 193.5t-259.5 72.5q-73 0 -127 -14v-576h146q89 0 130 40t54 116l14 82h52q-7 -151 -7 -260q0 -51 2 -108t4 -88l1 -32h-52 l-8 47q-19 123 -172 123h-164v-491q0 -64 43.5 -98.5t114.5 -34.5q75 0 136.5 19t103.5 47.5t76.5 72.5t55.5 84.5t40 91.5l49 -6l-64 -379q-462 6 -657 6z" />
<glyph unicode="F" horiz-adv-x="1140" d="M100 0v59l54 11q133 24 133 200v961q0 68 -26.5 96t-92.5 37l-68 10v60q193 -7 289 -7q150 0 311 1.5t246 3.5l86 2v-336h-49q-22 121 -113.5 193.5t-259.5 72.5q-73 0 -127 -14v-594h146q89 0 130 39.5t54 115.5l14 82h52q-7 -151 -7 -260q0 -51 2 -110.5t4 -92.5l1 -34 h-52l-8 49q-9 65 -49.5 98t-122.5 33h-164v-473q0 -68 30.5 -96.5t98.5 -36.5l82 -11v-59q-118 6 -313 6z" />
<glyph unicode="G" horiz-adv-x="1583" d="M80 682q0 154 52.5 293.5t148.5 248.5t246.5 173.5t332.5 64.5q98 0 263 -27.5t225 -27.5v-330h-60q-28 140 -150 222.5t-317 82.5q-155 0 -276 -84.5t-185.5 -229.5t-64.5 -325q0 -165 49.5 -299.5t134 -219t193 -130t229.5 -45.5q138 0 203 51t65 129v187 q0 68 -26.5 96t-91.5 37l-68 10v59h539v-59l-37 -10q-62 -17 -93.5 -67t-31.5 -124v-313q-52 0 -134 -19.5t-188 -39t-217 -19.5q-149 0 -282 48t-235.5 136.5t-163 226t-60.5 304.5z" />
<glyph unicode="H" horiz-adv-x="1738" d="M100 0v59l54 11q133 24 133 200v961q0 68 -26.5 96t-92.5 37l-68 10v60q129 -7 289 -7q64 0 136.5 1.5t113.5 3.5l41 2v-60l-51 -10q-67 -12 -106.5 -63.5t-39.5 -137.5v-381h772v449q0 68 -26.5 96t-91.5 37l-68 10v60q129 -7 289 -7q64 0 136.5 1.5t113.5 3.5l41 2v-60 l-52 -10q-67 -12 -106 -63.5t-39 -137.5v-960q0 -68 27.5 -96.5t91.5 -36.5l78 -11v-59q-139 6 -299 6l-281 -6v59l53 11q133 24 133 200v428h-772v-495q0 -68 27.5 -96.5t91.5 -36.5l78 -11v-59q-139 6 -299 6z" />
<glyph unicode="I" d="M100 0v59l54 11q133 24 133 200v961q0 68 -26.5 96t-92.5 37l-68 10v60q129 -7 289 -7q64 0 134 1.5t109 3.5l38 2v-60l-41 -10q-67 -16 -106.5 -66t-39.5 -135v-960q0 -68 27 -96t92 -37l68 -11v-59q-129 6 -289 6z" />
<glyph unicode="J" horiz-adv-x="759" d="M63 -420q15 23 70.5 73.5t81.5 90.5q37 56 49 123.5t12 157.5v1206q0 68 -26.5 96t-91.5 37l-68 10v60q129 -7 289 -7q64 0 134 1.5t108 3.5l38 2v-60l-41 -10q-67 -16 -106 -66t-39 -135v-1087q0 -192 -94 -318q-38 -50 -85.5 -83.5t-105.5 -66.5t-98 -67z" />
<glyph unicode="K" horiz-adv-x="1484" d="M100 0v59l54 11q133 24 133 200v961q0 68 -26.5 96t-92.5 37l-68 10v60q129 -7 289 -7q64 0 134 1.5t109 3.5l38 2v-60l-41 -10q-67 -16 -106.5 -66t-39.5 -135v-395h133l371 485q23 30 23 52q0 41 -78 59l-47 10v60q167 -7 284 -7l250 7v-60l-67 -8q-81 -10 -138 -46 t-112 -106l-320 -405l375 -561q60 -90 138.5 -140.5t158.5 -50.5q16 0 31.5 1.5t22.5 3.5l8 1v-43q-10 -6 -28.5 -15t-71.5 -23.5t-101 -14.5q-59 0 -109.5 13.5t-86.5 34.5t-70.5 56t-57.5 66.5t-51 77.5l-223 365q-67 112 -170 112q-37 0 -64 -10v-479q0 -68 27 -96 t92 -37l68 -11v-59q-129 6 -289 6z" />
<glyph unicode="L" horiz-adv-x="1159" d="M100 0v59l54 11q133 24 133 200v961q0 68 -26.5 96t-92.5 37l-68 10v60q129 -7 289 -7q64 0 134 1.5t109 3.5l38 2v-60l-41 -10q-67 -16 -106.5 -66t-39.5 -135v-960q0 -133 133 -133q99 0 174 27.5t124 80t78.5 109.5t54.5 135l49 -6l-45 -416q-103 0 -332 3t-338 3z " />
<glyph unicode="M" horiz-adv-x="2033" d="M39 0v59l53 11q158 27 176 292l64 850v14q0 55 -28 90q-32 39 -87 48l-61 10v60q188 -7 364 -7q7 -75 37 -139l459 -997l434 946q25 56 39.5 103.5t16.5 67.5l1 19q89 0 175.5 1.5t128.5 3.5l42 2v-60l-55 -12q-54 -12 -86 -46q-29 -31 -29 -76v-11l89 -1012 q6 -74 39.5 -105t111.5 -42l70 -11v-59q-193 6 -322 6l-317 -6v59l53 11q81 16 121 84q35 58 34 148q0 16 -1 32l-56 794l-501 -1138l-62 -8l-526 1132l-60 -809q-5 -33 -5 -65q1 -8 1 -16q2 -40 10 -71t40 -53.5t87 -29.5l74 -11v-59q-120 6 -284 6z" />
<glyph unicode="N" horiz-adv-x="1712" d="M80 0v59l53 11q133 24 133 200v961q0 68 -26.5 96t-92.5 37l-67 10v60q119 -7 323 -7q8 -21 24.5 -44.5t28 -37.5t42.5 -49l848 -968v903q0 69 -27 96.5t-105 36.5l-98 10v60q179 -9 281 -9q41 0 96.5 2.5t90.5 4.5l36 2v-60l-37 -10q-61 -16 -99 -66.5t-38 -134.5v-1173 l-64 -8l-1007 1140v-919q0 -70 29.5 -97t115.5 -36l98 -11v-59q-195 6 -301 6z" />
<glyph unicode="O" horiz-adv-x="1650" d="M80 682q0 154 52 293.5t149.5 248.5t250.5 173.5t340 64.5q145 0 272 -49t222 -139t150 -226t55 -300q0 -123 -32.5 -237t-98.5 -213t-159.5 -173t-222.5 -116t-280 -42q-145 0 -271.5 49.5t-221.5 139t-150 226t-55 300.5zM295 743q0 -161 47 -295t126.5 -220.5 t181.5 -133.5t214 -47q157 0 270 85.5t167.5 228t54.5 325.5q0 130 -30.5 242.5t-84.5 194.5t-126.5 141t-157 88.5t-175.5 29.5q-94 0 -173 -32t-136.5 -89.5t-97.5 -137t-60 -176t-20 -204.5z" />
<glyph unicode="P" horiz-adv-x="1212" d="M100 0v59l54 11q133 24 133 200v961q0 68 -26.5 96t-92.5 37l-68 10v60q165 -7 271 -7q24 0 139 3.5t141 3.5q95 0 181 -27t153.5 -76.5t107.5 -127.5t40 -173q0 -87 -24.5 -160t-64.5 -121t-92 -81.5t-106 -48.5t-107 -15q-61 0 -114.5 14.5t-89.5 29.5t-52 16v-461 q0 -67 30 -96t95 -37l88 -11v-59q-151 6 -315 6zM483 725q15 0 74.5 -16.5t108.5 -16.5q65 0 115.5 27.5t80.5 75t45 106.5t15 127q0 157 -95.5 246.5t-236.5 89.5q-53 0 -107 -14v-625z" />
<glyph unicode="Q" horiz-adv-x="1650" d="M80 682q0 154 52 293.5t149.5 248.5t250.5 173.5t340 64.5q145 0 272 -49t222 -139t150 -226t55 -300q0 -136 -41 -261t-118 -229t-197 -177t-269 -99q114 -26 293 -85.5t320.5 -107.5t342 -86.5t388.5 -38.5q170 0 353.5 36.5t313.5 98.5l11 -24q-213 -159 -390 -223 t-395 -64q-127 0 -258 31t-252 83t-231.5 107t-241.5 116t-237 97q-81 26 -207 45q-141 4 -264 55t-214.5 141t-144.5 224t-53 295zM295 743q0 -161 47 -294.5t126.5 -219t181.5 -132t214 -46.5q157 0 270 84.5t167.5 226t54.5 324.5q0 130 -30.5 242.5t-84.5 194.5 t-126.5 141t-157 88.5t-175.5 29.5q-94 0 -173 -32t-136.5 -89.5t-97.5 -137t-60 -176t-20 -204.5z" />
<glyph unicode="R" horiz-adv-x="1429" d="M100 0v59l54 11q133 24 133 200v961q0 68 -26.5 96t-92.5 37l-68 10v60q170 -7 289 -7q46 0 129 3.5t129 3.5q203 0 339 -105.5t136 -286.5q0 -72 -26 -133t-63 -99t-84 -67t-81.5 -42t-62.5 -19q59 -39 123 -143l155 -256q38 -62 72 -103.5t79.5 -77.5t103.5 -53.5 t130 -17.5v-43q-63 -21 -155 -21q-139 0 -239 56t-171 188l-162 305q-34 65 -76 102t-106 37q-20 0 -39 -3.5t-28 -7.5l-9 -3v-438q0 -68 27 -96t92 -37l74 -11v-59q-176 6 -295 6zM483 696q57 41 142 41q63 0 108 -18q67 19 121.5 109.5t54.5 209.5q0 158 -86.5 242 t-232.5 84q-53 0 -107 -14v-654z" />
<glyph unicode="S" horiz-adv-x="1067" d="M90 29v333h60q3 -59 25.5 -113.5t62.5 -100t104 -72.5t143 -27q122 0 214 67t92 183q0 60 -28.5 112t-75 88.5t-106.5 75t-122 71.5t-122 77.5t-106.5 93t-75 119t-28.5 154.5q0 160 115.5 266t326.5 106q69 0 182 -21.5t171 -21.5l-19 -319h-59q0 127 -83.5 203.5 t-219.5 76.5q-115 0 -184.5 -61.5t-69.5 -155.5q0 -60 37.5 -114t98 -97t133 -85.5t145 -91t133 -103.5t98 -131.5t37.5 -165.5q0 -186 -130 -297t-341 -111q-113 0 -223 31t-185 31z" />
<glyph unicode="T" horiz-adv-x="1384" d="M80 1159l22 307h50q2 -4 6 -9t25 -14t50 -9h945q27 0 47.5 8t27.5 16l7 8h45l-23 -317l-51 10q0 191 -215 191h-225v-1147q0 -66 32 -94.5t99 -38.5l65 -11v-59q-139 6 -299 6l-291 -6v59l52 11q145 28 145 200v1080h-135q-141 0 -218.5 -47.5t-109.5 -153.5z" />
<glyph unicode="U" horiz-adv-x="1611" d="M100 1374v60q129 -7 289 -7q76 0 148.5 1.5t107.5 3.5l35 2v-60l-51 -10q-66 -13 -106 -64t-40 -137v-690q0 -98 18 -169.5t60.5 -127t117.5 -83t183 -27.5q375 0 375 407v758q0 69 -27 97t-92 36l-78 10v60q140 -7 246 -7l246 7v-60l-41 -10q-67 -16 -106 -66t-39 -135 v-684q0 -257 -128 -384.5t-401 -127.5q-530 0 -530 512v752q0 68 -26.5 96t-92.5 37z" />
<glyph unicode="V" horiz-adv-x="1523" d="M41 1374v60q164 -7 270 -7l299 7v-60l-41 -10q-98 -23 -98 -121q0 -23 25 -96l333 -901l336 928q25 70 25 108q0 36 -22 54.5t-74 27.5l-68 10v60q141 -7 264 -7l193 7v-60l-41 -10q-61 -14 -100.5 -62.5t-73.5 -134.5l-461 -1192l-64 -8l-489 1268q-28 71 -55 95.5 t-90 33.5z" />
<glyph unicode="W" horiz-adv-x="2201" d="M41 1374v60q122 -7 278 -7q76 0 148.5 1.5t107.5 3.5l35 2v-60l-41 -10q-55 -13 -82.5 -40t-27.5 -79q0 -13 12 -55l299 -916l297 961q6 18 6 47q0 35 -22.5 55t-73.5 27l-68 10v60q117 -7 244 -7h64q-1 -61 32 -165l310 -992l294 951q15 51 15 69q0 31 -20 49t-68 25 l-72 10v60q117 -7 238 -7q54 0 107.5 1.5t80.5 3.5l27 2v-60l-41 -10q-57 -15 -102 -67t-72 -130l-408 -1192l-65 -8l-361 1082l-352 -1074l-66 -8l-440 1268q-25 69 -53.5 94.5t-91.5 34.5z" />
<glyph unicode="X" horiz-adv-x="1474" d="M41 1374v60q133 -7 285 -7q78 0 149 1.5t103 3.5l32 2v-60l-43 -10q-88 -20 -88 -61q0 -26 25 -62l278 -395l244 381q35 50 35 86q0 42 -64 51l-67 10v60q147 -7 264 -7q58 0 118 1.5t91 3.5l31 2v-60l-66 -10q-78 -11 -134.5 -45t-107.5 -111l-286 -440l405 -575 q76 -109 180 -125l48 -9v-59q-133 6 -252 6l-277 -6v59l53 11q56 10 56 45q0 25 -21 55l-315 448l-283 -413q-31 -45 -31 -80q0 -22 18.5 -37t45.5 -18l78 -11v-59q-117 6 -244 6q-65 0 -129 -1.5t-96 -2.5l-31 -2v59l53 11q63 12 135 57t136 139l293 432l-412 584 q-29 41 -58.5 57.5t-82.5 24.5z" />
<glyph unicode="Y" horiz-adv-x="1384" d="M41 1374v60q143 -7 258 -7l264 7v-60l-41 -10q-57 -14 -57 -74q0 -32 20 -73l281 -525l278 549q19 40 19 64q0 47 -76 59l-61 10v60q127 -7 225 -7q53 0 101 1.5t70 3.5l21 2v-60l-40 -10q-62 -15 -96.5 -41t-61.5 -78l-342 -643v-399q0 -68 27 -96t92 -37l67 -11v-59 q-129 6 -289 6l-280 -6v59l53 11q133 24 133 200v332l-364 672q-24 43 -52 63t-81 27z" />
<glyph unicode="Z" horiz-adv-x="1341" d="M53 29l895 1319l-434 -23q-164 -9 -248.5 -65.5t-120.5 -174.5l-49 7l47 374h58q0 -1 1 -3.5t6.5 -8t14.5 -9.5t27.5 -7.5t42.5 -3.5h899l18 -45l-882 -1305l372 20q91 5 165.5 24.5t129.5 49.5t101 75.5t78.5 95.5t64.5 116l49 -12l-112 -453h-1106z" />
<glyph unicode="[" horiz-adv-x="765" d="M147 -260v1757q156 0 287.5 28t194.5 79q18 -6 30.5 -24.5t12.5 -39.5q0 -39 -35 -64.5t-77 -33.5t-87 -8q-31 0 -70.5 3t-63.5 6l-24 3v-1653q88 12 158 12q33 0 64.5 -5t63.5 -16.5t51.5 -34t19.5 -52.5q0 -20 -13 -39t-30 -23q-62 51 -193.5 78t-288.5 27z" />
<glyph unicode="\" horiz-adv-x="841" d="M49 1602h135q193 -675 289 -973q42 -133 121.5 -376t137.5 -420l59 -177h-136q-192 675 -288 973q-42 133 -121.5 376t-137.5 420z" />
<glyph unicode="]" horiz-adv-x="765" d="M94 -303q0 30 19.5 52.5t51.5 34t63.5 16.5t64.5 5q31 0 70.5 -3t63.5 -6l24 -3v1653q-88 -12 -158 -12q-45 0 -87 8t-77 33.5t-35 64.5q0 21 12.5 39.5t30.5 24.5q63 -51 194 -79t287 -28v-1757q-157 0 -288 -27t-193 -78q-17 4 -30 23t-13 39z" />
<glyph unicode="^" horiz-adv-x="1138" d="M137 889l379 745h109l376 -745h-139l-293 596l-293 -596h-139z" />
<glyph unicode="_" horiz-adv-x="872" d="M31 -291h811v-119h-811v119z" />
<glyph unicode="`" horiz-adv-x="819" d="M248 1419q0 38 23 62t59 24q12 0 24 -4l217 -428l-18 -18q-37 20 -87 60t-99.5 90.5t-84 109t-34.5 104.5z" />
<glyph unicode="a" horiz-adv-x="960" d="M68 176q0 66 32 118.5t83 85.5t121 54.5t140 30t146 8.5q6 137 6 205q0 90 -37.5 140t-128.5 50q-68 0 -102.5 -30.5t-34.5 -73.5q0 -46 26 -76q-42 -31 -98 -31q-50 0 -79 25.5t-29 69.5q0 82 109.5 142t252.5 60q291 0 291 -313q0 -63 -5 -193.5t-5 -199.5 q0 -86 19 -127t77 -41q23 0 44 5t30 10l10 5l18 -34q-2 -4 -7 -10.5t-22 -24t-36 -30.5t-50.5 -23.5t-64.5 -10.5q-67 0 -108.5 35.5t-55.5 85.5q-26 -6 -60.5 -26.5t-63 -41t-78 -37t-105.5 -16.5q-111 0 -173 54.5t-62 154.5zM248 199q0 -64 36.5 -96.5t92.5 -32.5 q57 0 126 28.5t93 34.5q-10 57 -10 133l2 142q-147 0 -243.5 -54t-96.5 -155z" />
<glyph unicode="b" horiz-adv-x="1132" d="M29 1442q84 8 169.5 31.5t129.5 42.5l43 20v-709q26 8 62 30.5t66 43t79.5 37t103.5 16.5q180 0 282.5 -125.5t102.5 -330.5q0 -105 -35 -198.5t-102.5 -168.5t-179 -119.5t-252.5 -44.5q-121 0 -222 37l-86 -59l-32 20q25 55 31 108t6 169v1030q0 69 -33 97t-121 28z M371 201q0 -71 42.5 -115.5t135.5 -44.5q140 0 238 108t98 293q0 77 -17 146t-51.5 126.5t-94.5 91.5t-138 34q-46 0 -121.5 -34.5t-91.5 -37.5v-567z" />
<glyph unicode="c" horiz-adv-x="925" d="M66 438q0 100 35.5 192t100 164.5t164 116t218.5 43.5q72 0 135.5 -18t107 -56.5t43.5 -91.5q0 -44 -40.5 -72t-90.5 -28q-30 0 -57 12q8 21 8 48q0 46 -42.5 80t-143.5 34q-114 0 -186 -96.5t-72 -286.5q0 -73 21.5 -140t62.5 -121.5t110.5 -87t157.5 -32.5 q137 0 233 47l21 -39q-14 -17 -37.5 -36.5t-65.5 -44.5t-106 -41.5t-137 -16.5q-51 0 -106 13.5t-116 48t-108.5 85.5t-78.5 135.5t-31 188.5z" />
<glyph unicode="d" horiz-adv-x="1132" d="M66 424q0 83 21.5 159.5t67 144.5t111.5 118t161 79t208 29q35 0 66.5 -2.5t46.5 -5.5l14 -2v328q0 69 -33 97t-121 28l-10 45q84 8 169 31.5t128 42.5l43 20v-1307q0 -69 33 -96t121 -27l12 -45q-76 -6 -158 -29.5t-126 -43.5l-44 -21l-14 127q-26 -8 -62 -30.5t-66 -43 t-79.5 -37t-103.5 -16.5q-180 0 -282.5 125.5t-102.5 331.5zM248 479q0 -77 17 -145.5t51.5 -126t94.5 -91.5t138 -34q47 0 122.5 33.5t90.5 36.5v569q0 71 -42 114.5t-136 43.5q-140 0 -238 -107.5t-98 -292.5z" />
<glyph unicode="e" horiz-adv-x="946" d="M66 438q0 133 59 249.5t174 191.5t262 75q159 0 240.5 -87t81.5 -249l-33 -28h-600q-4 -33 -4 -90q0 -191 90.5 -295.5t251.5 -104.5q143 0 258 62l16 -39q-139 -156 -360 -156q-106 0 -190.5 36.5t-137.5 101t-80.5 149.5t-27.5 184zM258 647l444 25q3 14 3 30 q0 92 -49.5 136.5t-137.5 44.5q-93 0 -165.5 -65.5t-94.5 -170.5z" />
<glyph unicode="f" horiz-adv-x="741" d="M63 0v55l56 8q47 6 77.5 43.5t30.5 94.5v628h-135l-8 45q98 23 143 64v78q0 101 27 192.5t78.5 165.5t137 118t192.5 44q117 0 181 -39t64 -96q0 -41 -30.5 -67.5t-69.5 -26.5l-21 2q-5 17 -15.5 36.5t-30 46t-52.5 43.5t-72 17q-106 0 -159.5 -101t-53.5 -274v-155h328 v-97h-328v-641q0 -69 20 -93.5t69 -27.5l110 -8v-55q-195 6 -285 6z" />
<glyph unicode="g" horiz-adv-x="1069" d="M47 -274q0 77 45 116t103 39q64 0 94 -45q-64 -45 -64 -115q0 -163 293 -163q57 0 113.5 11t109 33.5t85 63t32.5 92.5q0 49 -22.5 81.5t-69 49.5t-105 24t-143.5 7q-59 0 -104 2.5t-90.5 9t-77 18.5t-57 31t-38 47.5t-12.5 65.5q0 44 19.5 79t52 56t65 33.5t66.5 18.5 q-114 31 -183 112t-69 205q0 67 28.5 130.5t79.5 114t129.5 81t172.5 30.5q65 0 114 -12.5t105 -44.5q74 -12 112 -12q116 0 187 41q29 -23 29 -62q0 -34 -28 -60t-81 -26q-31 0 -57.5 11t-51.5 26.5t-41 20.5q74 -90 74 -205q0 -61 -21.5 -120t-63.5 -111t-114 -87 t-163 -41q-47 -9 -75 -16.5t-61.5 -21t-50 -32t-16.5 -42.5q0 -44 57.5 -60t192.5 -16q229 0 341.5 -59t112.5 -203q0 -103 -76.5 -182t-205.5 -120.5t-289 -41.5q-98 0 -182 25t-142.5 83t-58.5 140zM262 625q0 -135 66.5 -210t160.5 -75q92 0 146.5 67.5t54.5 194.5 q0 113 -62.5 198t-168.5 85q-100 0 -148.5 -70t-48.5 -190z" />
<glyph unicode="h" horiz-adv-x="1165" d="M31 0v55l57 8q47 6 78 43.5t31 94.5v1071q0 69 -33 97t-121 28l-12 45q84 8 169.5 31.5t129.5 42.5l43 20v-733q14 4 53 29.5t80 51.5t101 48t116 22q131 0 199.5 -75t68.5 -195v-500q0 -71 15 -93t65 -28l66 -8v-55q-138 6 -226 6l-245 -6v55l41 8q49 9 78.5 45t29.5 93 v461q0 167 -160 167q-63 0 -160.5 -40t-121.5 -44v-561q0 -72 15 -94t65 -27l65 -8v-55q-141 6 -233 6z" />
<glyph unicode="i" horiz-adv-x="630" d="M74 0v55l55 8q47 6 78 43.5t31 94.5v489q0 67 -33 95t-121 28l-10 45q84 8 169 31.5t128 42.5l43 20v-768q0 -70 15.5 -92.5t64.5 -28.5l65 -8v-55q-141 6 -231 6zM207 1341q0 51 34.5 86t84.5 35q51 0 85.5 -35t34.5 -86q0 -50 -34.5 -84t-85.5 -34q-50 0 -84.5 34.5 t-34.5 83.5z" />
<glyph unicode="j" horiz-adv-x="577" d="M-47 -430q20 15 73.5 49t83 61t52.5 68q36 63 45.5 126t9.5 181v635q0 67 -33 95t-121 28l-10 45q84 8 169 31.5t128 42.5l43 20v-837q0 -163 -22.5 -257.5t-89.5 -162.5q-54 -54 -167.5 -103.5t-133.5 -62.5zM182 1341q0 51 34.5 86t84.5 35q51 0 86 -35t35 -86 q0 -50 -35 -84t-86 -34q-50 0 -84.5 34.5t-34.5 83.5z" />
<glyph unicode="k" horiz-adv-x="1118" d="M33 0v55l55 8q47 6 78 43.5t31 94.5v1071q0 69 -33 97t-121 28l-10 45q84 8 169 31.5t128 42.5l43 20v-997h92l156 206q20 30 20 58q0 47 -82 57l-43 6v56q105 -7 279 -7q70 0 136.5 1.5t98.5 3.5l31 2v-56l-47 -4q-109 -10 -178 -37.5t-123 -93.5l-133 -168l292 -381 q53 -68 97.5 -95.5t105.5 -27.5q30 0 58 7v-46q-58 -34 -150 -34q-107 0 -183 50.5t-153 158.5l-168 237q-20 27 -43 39t-63 12v-299q0 -70 15.5 -92.5t64.5 -28.5l65 -8v-55q-108 6 -231 6q-68 0 -131.5 -1.5t-93.5 -2.5z" />
<glyph unicode="l" horiz-adv-x="546" d="M33 0v55l55 8q47 6 78 43.5t31 94.5v1071q0 69 -33 97t-121 28l-10 45q84 8 169 31.5t128 42.5l43 20v-1352q0 -70 15.5 -92.5t64.5 -28.5l65 -8v-55q-141 6 -231 6z" />
<glyph unicode="m" horiz-adv-x="1730" d="M51 0v55l58 8q47 6 77.5 43.5t30.5 94.5v489q0 67 -33 95t-121 28l-12 45q84 8 169.5 31.5t129.5 42.5l43 20v-149q14 4 46.5 29.5t66 51.5t87.5 48t109 22q96 0 158.5 -40t89.5 -111q16 4 53.5 28.5t76 51.5t96 49t112.5 22q131 0 199.5 -75t68.5 -195v-500 q0 -71 15 -93t65 -28l66 -8v-55q-137 6 -225 6l-246 -6v55l41 8q49 9 78.5 45t29.5 93v461q0 167 -159 167q-47 0 -93 -17.5t-88.5 -39.5t-72.5 -27q6 -30 6 -61v-500q0 -71 15 -93t65 -28l65 -8v-55q-137 6 -225 6l-246 -6v55l41 8q49 9 79 45t30 93v461q0 167 -160 167 q-62 0 -139 -39.5t-105 -44.5v-561q0 -72 15 -94t65 -27l66 -8v-55q-142 6 -234 6z" />
<glyph unicode="n" horiz-adv-x="1167" d="M51 0v55l58 8q47 6 77.5 43.5t30.5 94.5v489q0 67 -33 95t-121 28l-12 45q84 8 169.5 31.5t129.5 42.5l43 20v-149q14 4 50 29.5t74 51.5t95.5 48t112.5 22q131 0 199.5 -75t68.5 -195v-500q0 -71 15.5 -93t66.5 -28l64 -8v-55q-136 6 -226 6l-245 -6v55l43 8 q48 9 78 45.5t30 92.5v461q0 167 -162 167q-47 0 -95.5 -17.5t-93.5 -39.5t-75 -27v-561q0 -72 15 -94t65 -27l66 -8v-55q-142 6 -234 6z" />
<glyph unicode="o" horiz-adv-x="1101" d="M66 438q0 99 35 191t99.5 165t164 116.5t219.5 43.5q92 0 174 -32.5t144 -92t98 -149t36 -197.5q0 -99 -35 -191t-99 -165t-163.5 -116.5t-218.5 -43.5q-194 0 -324 127.5t-130 343.5zM256 479q0 -199 94 -315.5t223 -116.5q139 0 206 107.5t67 287.5q0 199 -94 314.5 t-224 115.5q-138 0 -205 -107t-67 -286z" />
<glyph unicode="p" horiz-adv-x="1155" d="M53 858q84 8 169 31.5t128 42.5l43 20v-125q26 8 62 30.5t66.5 43t80.5 37t105 16.5q180 0 281.5 -125.5t101.5 -330.5q0 -104 -35 -198t-103 -169t-179 -119.5t-251 -44.5q-35 0 -67 2.5t-47 4.5l-15 3v-305q0 -70 16 -93t62 -28l96 -10v-53h-510v55l52 8q47 8 77.5 45 t30.5 93v1001q0 67 -33 95t-121 28zM393 201q0 -71 42.5 -115.5t135.5 -44.5q140 0 238 108t98 293q0 77 -17 146t-51.5 126.5t-94.5 91.5t-138 34q-46 0 -120.5 -34.5t-92.5 -37.5v-567z" />
<glyph unicode="q" horiz-adv-x="1122" d="M66 424q0 83 21.5 159.5t67 144.5t111.5 118t161 79t208 29q55 0 108.5 -9t80.5 -18l26 -9l98 71l35 -10q-45 -121 -45 -291v-1024q0 -57 19.5 -82t72.5 -31l82 -10v-53h-510v55l70 13q36 6 63 42t27 87v409q-26 -8 -62 -30.5t-66 -43t-79.5 -37t-103.5 -16.5 q-180 0 -282.5 126t-102.5 331zM248 479q0 -77 17 -145.5t51.5 -126t94.5 -91.5t138 -34q47 0 122.5 33.5t90.5 36.5v569q0 71 -42 114.5t-136 43.5q-140 0 -238 -107.5t-98 -292.5z" />
<glyph unicode="r" horiz-adv-x="837" d="M51 0v55l58 8q47 6 77.5 43.5t30.5 94.5v489q0 67 -33 95t-121 28l-12 45q84 8 169.5 31.5t129.5 42.5l43 20v-164q11 2 40 29t61 57t79.5 55t92.5 25q67 0 106 -34.5t39 -94.5q0 -52 -31.5 -83t-81.5 -31q-26 0 -59 10q6 18 6 41q0 27 -18 44t-56 17q-30 0 -64.5 -20 t-66 -44t-47.5 -28v-547q0 -72 15 -94t65 -27l96 -8v-55q-104 6 -264 6q-65 0 -128.5 -1.5t-94.5 -2.5z" />
<glyph unicode="s" horiz-adv-x="761" d="M70 285h53q19 -111 83 -172.5t159 -61.5q80 0 131 38t51 101q0 45 -25.5 80.5t-66 60.5t-90 48t-98.5 50t-89.5 60t-66 83t-25.5 114q0 112 88 190t236 78q53 0 135.5 -20.5t116.5 -20.5l-13 -247h-59q0 54 -20 102t-68 82.5t-117 34.5q-77 0 -119.5 -43t-42.5 -101 q0 -43 26 -78t67.5 -60t91.5 -49t100.5 -52t92 -61t67.5 -83.5t26 -113.5q0 -131 -95.5 -204t-246.5 -73q-70 0 -150.5 21.5t-121.5 21.5q0 18 -10 275z" />
<glyph unicode="t" horiz-adv-x="739" d="M35 874q96 37 166 107q33 33 60.5 72.5t38.5 62.5l11 23l49 -15v-202h316v-97h-316v-575q0 -73 37 -120.5t117 -47.5q55 0 103.5 8t70.5 16l21 9l6 -49q-111 -99 -281 -99q-116 0 -183 68t-67 194v600h-143z" />
<glyph unicode="u" horiz-adv-x="1134" d="M33 852v55l297 33l20 -20v-633q0 -87 44.5 -131.5t111.5 -44.5q58 0 104.5 16t92 38.5t81.5 31.5v532q0 68 -31 95.5t-110 27.5v55l297 33l21 -20v-691q0 -69 32 -96t121 -27l10 -45q-76 -6 -158 -29.5t-126 -43.5l-43 -21l-13 170q-19 -2 -56.5 -29.5t-76 -58.5 t-96.5 -56.5t-113 -25.5q-131 0 -199.5 75.5t-68.5 195.5v491q0 68 -31 95.5t-110 27.5z" />
<glyph unicode="v" horiz-adv-x="1073" d="M33 866v56q90 -7 221 -7q59 0 114 1.5t80 3.5l25 2v-56l-41 -8q-70 -14 -70 -65q0 -16 7 -37l190 -561l221 565q13 37 13 49q0 38 -60 47l-61 10v56q90 -7 217 -7q43 0 80.5 1.5t54.5 3.5l16 2v-56l-39 -6q-103 -15 -159 -158l-285 -735h-84l-280 762q-25 70 -49.5 97 t-71.5 34z" />
<glyph unicode="w" horiz-adv-x="1624" d="M20 866v56q132 -7 222 -7l219 7v-56l-41 -8q-70 -14 -70 -65q0 -19 6 -37l189 -553l211 559q10 33 10 49q0 33 -35 43l-39 12v56q66 -4 101 -4h86q18 -68 78.5 -247t111.5 -323l51 -145l228 567q8 20 8 35q0 40 -60 51l-61 10v56q90 -7 217 -7q35 0 73 1.5t59 3.5l20 2 v-56l-39 -6q-61 -10 -96 -48t-64 -110l-297 -735h-72l-239 656l-265 -656h-71l-281 762q-25 69 -48.5 94.5t-70.5 34.5z" />
<glyph unicode="x" horiz-adv-x="1079" d="M-14 0v55l67 8q105 12 180 105l218 260l-232 336q-34 49 -55.5 68t-65.5 26l-57 8v56q96 -7 227 -7q62 0 121 1.5t87 3.5l28 2v-56l-68 -10q-39 -5 -39 -35q0 -23 31 -63l139 -195l162 201q25 36 25 53q0 32 -41 39l-58 10v56q70 -7 217 -7q45 0 91 1.5t69 3.5l23 2v-56 l-56 -10q-66 -11 -104 -31t-74 -65l-215 -258l242 -350q24 -33 71 -58t91 -31l55 -8v-55q-90 6 -252 6q-74 0 -136.5 -1.5t-88.5 -2.5l-25 -2v55l55 8q26 3 36 12.5t10 28.5q0 16 -17 41l-151 220l-174 -209q-29 -32 -29 -58q0 -35 61 -39l45 -4v-55q-82 6 -211 6 q-52 0 -102.5 -1.5t-75.5 -2.5z" />
<glyph unicode="y" horiz-adv-x="1060" d="M-37 -315q0 37 29 65.5t82 28.5q24 0 32 -4q-4 -12 -4 -23q0 -80 93 -80q150 0 223 185l51 127l-264 747q-23 67 -51 93.5t-70 33.5l-55 8v56q155 -7 247 -7l207 7v-56l-51 -8q-61 -9 -61 -47q0 -15 4 -29l182 -589l225 577q11 33 11 39q0 40 -54 49l-55 8v56 q86 -7 195 -7q40 0 79.5 1.5t58.5 3.5l19 2v-56l-30 -6q-49 -10 -82.5 -38t-57.5 -85l-383 -907q-57 -136 -136 -210.5t-195 -74.5q-100 0 -144.5 41.5t-44.5 98.5z" />
<glyph unicode="z" horiz-adv-x="952" d="M72 33l575 817l-229 -6q-110 -3 -172 -43.5t-92 -134.5l-37 4l47 276h43q22 -28 72 -28l591 4l11 -31l-586 -819l231 8q126 6 202 50t106 134l20 58l39 -9l-64 -313h-745z" />
<glyph unicode="{" horiz-adv-x="659" d="M27 592v53h43q170 0 170 199q0 76 -29 228.5t-29 234.5q0 77 29 137t75.5 93.5t95.5 50t97 16.5q62 0 92.5 -21t30.5 -49q0 -38 -43 -49q-20 45 -84 45q-50 0 -85.5 -42t-35.5 -120q0 -85 12.5 -244.5t12.5 -255.5q0 -59 -20.5 -106.5t-54.5 -76t-69 -45t-71 -22.5 q36 -6 71 -22t69 -44.5t54.5 -76t20.5 -106.5q0 -96 -12.5 -255.5t-12.5 -244.5q0 -78 35.5 -120t85.5 -42q64 0 84 45q43 -11 43 -49q0 -28 -30.5 -49t-92.5 -21q-48 0 -97 16.5t-95.5 50t-75.5 93.5t-29 137q0 82 29 234.5t29 228.5q0 199 -170 199h-43z" />
<glyph unicode="|" horiz-adv-x="452" d="M160 -512q8 856 8 1057l-8 1057h133q-8 -858 -8 -1057l8 -1057h-133z" />
<glyph unicode="}" horiz-adv-x="659" d="M57 -297q0 38 43 49q20 -45 84 -45q50 0 85.5 42t35.5 120q0 85 -12 244.5t-12 255.5q0 59 20.5 106.5t54.5 76t69 44.5t71 22q-36 6 -71 22.5t-69 45t-54.5 76t-20.5 106.5q0 96 12 255.5t12 244.5q0 78 -35.5 120t-85.5 42q-64 0 -84 -45q-43 11 -43 49q0 28 30.5 49 t92.5 21q48 0 97 -16.5t95.5 -50t75.5 -93.5t29 -137q0 -82 -28.5 -234.5t-28.5 -228.5q0 -199 170 -199h43v-53h-43q-170 0 -170 -199q0 -76 28.5 -228.5t28.5 -234.5q0 -77 -29 -137t-75.5 -93.5t-95.5 -50t-97 -16.5q-62 0 -92.5 21t-30.5 49z" />
<glyph unicode="~" horiz-adv-x="1136" d="M96 442q22 96 94 161t183 65q60 0 119.5 -22t100.5 -48t96 -48t106 -22q64 0 117 34t79 95l49 -34q-20 -100 -93 -163t-195 -63q-56 0 -113 21t-97 45.5t-93.5 45.5t-104.5 21q-66 0 -120 -31.5t-79 -90.5z" />
<glyph unicode="&#xa1;" horiz-adv-x="565" d="M158 -342q0 126 47 423t47 435l-4 96h69q-4 -37 -4 -96q0 -138 47.5 -435t47.5 -423q0 -52 -36 -88.5t-89 -36.5t-89 36.5t-36 88.5zM160 905q0 51 36 87t87 36t87 -36t36 -87t-36 -87t-87 -36t-87 36t-36 87z" />
<glyph unicode="&#xa2;" horiz-adv-x="954" d="M66 438q0 120 48.5 226.5t146 183.5t228.5 98l-4 338h82q0 -152 -2 -330q81 0 148.5 -18t112 -56.5t44.5 -91.5q0 -47 -29 -75.5t-81 -28.5q-51 0 -78 16q8 21 8 48q0 46 -42.5 80t-143.5 34q-114 0 -186 -96.5t-72 -286.5q0 -73 21.5 -140t62.5 -121.5t110.5 -87 t157.5 -32.5q137 0 233 47l21 -39q-18 -22 -47.5 -46t-96 -53t-143.5 -36l2 -307h-82q2 135 4 303q-53 3 -106.5 18t-112 50.5t-102.5 86.5t-73 133t-29 183z" />
<glyph unicode="&#xa3;" horiz-adv-x="1499" d="M96 29q0 32 34 53.5t89 21.5q74 0 170 -36q62 45 114 163.5t68 294.5h-233v37q57 2 118 15.5t94 26.5l32 13l30 232q16 123 68.5 221t127.5 158.5t163.5 92.5t183.5 32q113 0 198 -46.5t85 -117.5q0 -49 -36 -80t-89 -31q-63 0 -115 39q27 44 27 84q0 72 -103 72 q-43 0 -81 -16.5t-76.5 -54.5t-70 -109t-52.5 -170l-62 -301h398v-93h-416q-60 -315 -303 -487q98 -39 201.5 -100t169 -106t142.5 -79t144 -34q51 0 79 29t28 81q0 71 -74 133q34 43 90 43q51 0 83 -35.5t32 -78.5q0 -108 -92 -190.5t-246 -82.5q-67 0 -129.5 16t-118.5 44 t-122 78.5t-126 105.5t-145 139q-116 -41 -168 -41q-111 0 -111 64z" />
<glyph unicode="&#xa5;" horiz-adv-x="1286" d="M49 1260v55q132 -6 238 -6l241 6v-55l-32 -9q-58 -13 -58 -67q0 -25 19 -68l250 -481l241 481q27 49 27 74q0 50 -66 61l-57 9v55q117 -6 207 -6q48 0 92 1.5t64 3.5l20 1v-55l-37 -9q-57 -13 -88.5 -37t-56.5 -71l-287 -543l346 8v-86q-168 2 -373 2v-127l373 6v-86 q-168 2 -373 2v-133q0 -62 26 -88.5t83 -34.5l63 -8v-55q-119 6 -266 6l-248 -6v55l49 8q121 24 121 185v71q-133 -2 -348 -2v86q9 0 124 -3t224 -3v127q-133 -2 -348 -2v86q17 0 122 -3.5t200 -4.5l-308 567q-23 40 -48 58.5t-74 25.5z" />
<glyph unicode="&#xa6;" horiz-adv-x="450" d="M160 -510q6 556 8 877h117l8 -877h-133zM160 1604h133q-6 -559 -8 -877h-117z" />
<glyph unicode="&#xa7;" horiz-adv-x="1148" d="M92 928q0 159 83.5 282t223 187.5t308.5 64.5q126 0 191 -47.5t65 -114.5q0 -54 -33.5 -81t-79.5 -27q-54 0 -84 20q12 18 12 45q0 39 -31.5 69t-97.5 30q-88 0 -148.5 -53t-60.5 -144q0 -55 32.5 -118t84.5 -124.5t114.5 -128t125 -139.5t114.5 -148t84.5 -164.5 t32.5 -178.5q0 -159 -83 -282t-222.5 -188t-308.5 -65q-124 0 -190 48t-66 114q0 54 33 81.5t79 27.5q52 0 84 -21q-12 -18 -12 -45q0 -39 31.5 -68.5t97.5 -29.5q88 0 148.5 52.5t60.5 143.5q0 55 -32.5 118.5t-84.5 125.5t-114.5 129.5t-125 140.5t-114.5 148.5t-84.5 164 t-32.5 175.5zM229 993q0 -82 31.5 -163.5t82 -151t111.5 -138.5t122 -136t111.5 -132.5t82 -139.5t31.5 -146q0 -135 -115 -219q75 28 123.5 88t65 118.5t16.5 118.5q0 90 -31.5 176t-82 156.5t-111.5 138.5t-122 132.5t-111.5 127.5t-82 134.5t-31.5 142.5q0 135 115 219 q-75 -28 -123.5 -88.5t-65 -119t-16.5 -118.5z" />
<glyph unicode="&#xa8;" horiz-adv-x="692" d="M49 1247q0 43 32.5 75t76.5 32q43 0 74.5 -32t31.5 -75t-31.5 -75.5t-74.5 -32.5q-44 0 -76.5 32.5t-32.5 75.5zM428 1247q0 43 32 75t75 32q44 0 76 -32t32 -75t-32 -75.5t-76 -32.5q-43 0 -75 32.5t-32 75.5z" />
<glyph unicode="&#xa9;" horiz-adv-x="1638" d="M76 715q0 152 59 290t158.5 237.5t237.5 158.5t290 59t290 -59t238 -158.5t159 -237.5t59 -290q0 -203 -100 -374.5t-271.5 -271.5t-374.5 -100q-152 0 -290 59t-237.5 159t-158.5 238t-59 290zM197 715q0 -132 49 -252t132.5 -207t199.5 -138.5t243 -51.5q169 0 313 87 t228 236.5t84 325.5t-84 325.5t-228 236.5t-313 87q-127 0 -243 -51.5t-199.5 -138.5t-132.5 -207t-49 -252zM406 694q0 117 50 216.5t152.5 163t239.5 63.5q55 0 152.5 -26t125.5 -26v-196h-39q-9 80 -80 133t-182 53q-123 0 -199.5 -95.5t-76.5 -248.5q0 -184 88.5 -276.5 t232.5 -92.5q97 0 157.5 61t82.5 161l37 -2l-27 -246q-37 0 -126.5 -21.5t-157.5 -21.5q-89 0 -165 23t-136 70t-94.5 126t-34.5 182z" />
<glyph unicode="&#xaa;" horiz-adv-x="747" d="M41 485v105q172 -6 332 -6l332 6v-105q-156 7 -332 7zM72 842q0 56 34 98.5t90 65t115.5 33t122.5 10.5q2 42 2 79q0 27 -0.5 40.5t-2.5 34t-6 30t-12 22t-19.5 18t-29 9.5t-40.5 4q-50 0 -70 -20.5t-20 -48.5q0 -13 3 -25.5t6 -18.5l3 -6q-32 -16 -60 -16 q-39 0 -62.5 17.5t-23.5 50.5q0 57 68 101t176 44q125 0 175 -55.5t50 -157.5q0 -48 -3 -136t-3 -136q0 -93 64 -93q18 0 34 4t23 8l6 5l15 -31q-2 -3 -6 -7.5t-17 -16.5t-28.5 -21.5t-40 -17t-50.5 -7.5q-99 0 -119 86q-13 -5 -46.5 -28.5t-72 -39t-87.5 -15.5 q-83 0 -125.5 36t-42.5 101zM219 868q0 -36 23 -60t67 -24q22 0 40.5 7t43 20t45.5 20q-6 31 -6 74l2 92q-52 0 -97 -10t-81.5 -40.5t-36.5 -78.5z" />
<glyph unicode="&#xab;" horiz-adv-x="1032" d="M127 485l322 451l81 -105l-299 -342q318 -220 318 -372q0 -40 -27.5 -67t-56.5 -27zM526 485l289 404l74 -94l-268 -308q44 -29 85.5 -62.5t90 -79.5t78.5 -96.5t30 -94.5q0 -36 -24 -60t-50 -24z" />
<glyph unicode="&#xac;" horiz-adv-x="935" d="M0 590v121h936v-555h-131v434h-805z" />
<glyph unicode="&#xad;" horiz-adv-x="729" d="M72 479q91 71 225 134t254 63q53 0 79.5 -25.5t26.5 -66.5q0 -17 -4 -25l-557 -115z" />
<glyph unicode="&#xae;" horiz-adv-x="800" d="M55 1274q0 145 99.5 244.5t244.5 99.5q142 0 243 -100t101 -244q0 -141 -101.5 -242.5t-242.5 -101.5q-149 0 -246.5 100.5t-97.5 243.5zM115 1274q0 -122 81.5 -207.5t202.5 -85.5q120 0 201.5 86t81.5 207q0 123 -81.5 209t-201.5 86q-122 0 -203 -86t-81 -209z M244 1092v20l16 2q31 6 31 57v224q0 23 -6 32.5t-21 14.5l-20 4v20q40 -4 73 -4q17 0 43 2t37 2q56 0 90.5 -25.5t34.5 -68.5q0 -22 -8 -40t-19.5 -28.5t-23 -17.5t-19.5 -10l-8 -2q11 -6 27 -31l64 -96q21 -33 57 -33l18 2v-18q-22 -15 -51 -15q-64 0 -100 64l-49 88 q-14 27 -35 27q-5 0 -10.5 -2t-8.5 -4l-2 -1v-108q0 -30 29 -33l20 -2v-20q-44 2 -79 2zM354 1282q15 10 35 10l25 -4q35 23 35 84q0 35 -21 52.5t-47 17.5q-15 0 -27 -6v-154z" />
<glyph unicode="&#xaf;" horiz-adv-x="684" d="M63 1204v113q146 -6 279 -6l279 6v-113q-129 6 -279 6z" />
<glyph unicode="&#xb0;" horiz-adv-x="645" d="M66 1202q0 110 74.5 185t183.5 75t183.5 -75t74.5 -185q0 -107 -74.5 -181.5t-183.5 -74.5t-183.5 74.5t-74.5 181.5zM164 1202q0 -66 47 -114t113 -48t111.5 48t45.5 114q0 71 -45.5 119.5t-111.5 48.5t-113 -49t-47 -119z" />
<glyph unicode="&#xb1;" horiz-adv-x="933" d="M0 0v121h934v-121h-934zM0 524v121h408v289h120v-289h406v-121h-406v-293h-120v293h-408z" />
<glyph unicode="&#xb2;" horiz-adv-x="731" d="M39 694l199 191q249 239 249 409q0 66 -40.5 115t-114.5 49q-55 0 -86 -29t-31 -71q0 -24 8 -45q-39 -13 -57 -13q-40 0 -63 20t-23 54q0 60 74 111t200 51q133 0 208 -64t75 -167q0 -45 -15.5 -92t-48.5 -94t-62.5 -84t-80.5 -84.5t-77.5 -70.5t-76.5 -65l-51 -43 l312 10q82 2 114 97l39 -5l-51 -215h-588z" />
<glyph unicode="&#xb3;" horiz-adv-x="675" d="M63 748q0 32 23.5 51.5t58.5 19.5q27 0 48 -8q-7 -16 -7 -33q0 -34 24 -53.5t66 -19.5q80 0 130.5 54.5t50.5 135.5q0 93 -74 142.5t-195 49.5l-12 52q240 65 240 215q0 42 -27 73t-78 31q-45 0 -71.5 -29t-26.5 -71q0 -18 10 -45q-50 -13 -57 -13q-40 0 -64 20t-24 54 q0 61 69.5 111.5t194.5 50.5q100 0 162.5 -50t62.5 -120q0 -77 -54 -129.5t-144 -79.5l2 -10q103 -14 170 -76t67 -153q0 -130 -94 -204.5t-252 -74.5q-84 0 -141.5 31t-57.5 78z" />
<glyph unicode="&#xb4;" horiz-adv-x="819" d="M248 1073l217 428q12 4 24 4q36 0 59 -24t23 -62q0 -46 -34.5 -104.5t-84 -109t-99.5 -90.5t-87 -60z" />
<glyph unicode="&#xb5;" horiz-adv-x="1134" d="M33 852v55l297 33l20 -20v-633q0 -87 44.5 -131.5t111.5 -44.5q58 0 104.5 16t92 38.5t81.5 31.5v532q0 68 -31 95.5t-110 27.5v55l297 33l21 -20v-691q0 -69 32 -96t121 -27l10 -45q-76 -6 -158 -29.5t-126 -43.5l-43 -21l-13 170q-19 -2 -56.5 -29.5t-76 -58.5 t-96.5 -56.5t-113 -25.5q-97 0 -159 41q-4 -94 -4 -147q0 -213 71 -262q-9 -35 -35 -56.5t-63 -21.5q-50 0 -79.5 37.5t-29.5 115.5q0 57 15.5 250t15.5 314v491q0 68 -31 95.5t-110 27.5z" />
<glyph unicode="&#xb6;" horiz-adv-x="1183" d="M74 1006q0 99 26 174t70 122.5t108 77.5t134 42t155 12q90 0 193.5 -3.5t150.5 -3.5q63 0 121.5 1.5t85.5 3.5l27 2v-60l-41 -10q-67 -16 -106.5 -66t-39.5 -135v-817q0 -186 -42 -327t-119 -227t-178.5 -128.5t-227.5 -42.5q-77 0 -141.5 20.5t-109 70t-44.5 120.5 q0 54 34.5 86.5t88.5 32.5t90 -31q-41 -38 -41 -98q0 -117 123 -117q225 0 225 475v404q-22 -2 -71 -2q-471 0 -471 424zM592 -252q227 93 227 494v1108h-96v-1129q0 -339 -131 -473z" />
<glyph unicode="&#xb7;" horiz-adv-x="423" d="M90 596q0 51 36 87t87 36t87 -36t36 -87t-36 -87t-87 -36t-87 36t-36 87z" />
<glyph unicode="&#xb8;" horiz-adv-x="649" d="M113 -375q0 31 24.5 54.5t57.5 23.5q18 0 34 -8q-20 -24 -20 -55q0 -28 25 -46t79 -18q47 0 75 20t28 52q0 24 -25.5 49.5t-55.5 45.5t-55.5 54.5t-25.5 75.5t25.5 75.5t50.5 49.5l26 14h62q-6 -3 -15 -9t-23.5 -27.5t-14.5 -45.5q0 -28 17.5 -51t43 -41t51 -37.5t43 -50 t17.5 -69.5q0 -70 -76 -117t-174 -47q-75 0 -124.5 28.5t-49.5 79.5z" />
<glyph unicode="&#xb9;" horiz-adv-x="565" d="M59 1413q0 14 13 27q64 10 153.5 40.5t143.5 59.5l22 -4v-752q0 -31 14.5 -43.5t49.5 -17.5l65 -10v-54q-103 5 -201 5l-210 -5v54l57 10q90 12 90 119v573q-67 -45 -139 -45q-27 0 -42.5 12.5t-15.5 30.5z" />
<glyph unicode="&#xba;" horiz-adv-x="874" d="M94 485v105q186 -6 346 -6l338 6v-105q-160 7 -338 7zM106 1020q0 139 96 241.5t255 102.5q137 0 223 -90.5t86 -220.5q0 -63 -21 -123t-62 -111.5t-111 -82.5t-160 -31q-128 0 -217 85.5t-89 229.5zM254 1047q0 -131 58 -206t141 -75q76 0 120.5 67t44.5 191 q0 111 -53.5 195t-144.5 84q-85 0 -125.5 -69.5t-40.5 -186.5z" />
<glyph unicode="&#xbb;" horiz-adv-x="1032" d="M127 805q0 36 24 60t50 24l305 -416l-289 -403l-74 94l269 307q-43 29 -85.5 62.5t-91 80t-78.5 97t-30 94.5zM483 842q0 40 27.5 67t56.5 27l338 -463l-321 -450l-82 104l299 342q-39 27 -74 53.5t-82 68.5t-80.5 80.5t-57.5 84.5t-24 86z" />
<glyph unicode="&#xbc;" horiz-adv-x="1583" d="M59 1339q0 14 13 27q64 10 153.5 40.5t143.5 59.5l22 -4v-751q0 -31 14.5 -44t49.5 -18l65 -10v-53q-103 4 -201 4l-210 -4v53l57 10q90 12 90 119v573q-67 -45 -139 -45q-27 0 -42.5 12.5t-15.5 30.5zM356 -139q116 237 389 826t420 927l101 -45q-190 -382 -445.5 -942 t-361.5 -813zM852 266l215 289q76 102 76 203q0 68 -27 102q33 17 66 17q48 0 78 -34.5t30 -78.5q0 -57 -36 -115.5t-113 -150.5l-154 -183h240v177l133 67v-244h174v-86h-174v-120q0 -38 49 -46l51 -10v-53h-330v51l48 12q26 6 37.5 21t11.5 45v100h-357z" />
<glyph unicode="&#xbd;" horiz-adv-x="1648" d="M59 1339q0 14 13 27q64 10 153.5 40.5t143.5 59.5l22 -4v-751q0 -31 14.5 -44t49.5 -18l65 -10v-53q-103 4 -201 4l-210 -4v53l57 10q90 12 90 119v573q-67 -45 -139 -45q-27 0 -42.5 12.5t-15.5 30.5zM344 -139q116 237 389 826t420 927l100 -45q-190 -382 -445.5 -942 t-361.5 -813zM956 35l199 190q250 240 250 410q0 66 -40.5 115t-115.5 49q-54 0 -85 -29.5t-31 -71.5q0 -24 8 -45q-36 -12 -58 -12q-40 0 -63 20t-23 54q0 60 74.5 111t200.5 51q133 0 207.5 -64.5t74.5 -167.5q0 -45 -15.5 -92t-48.5 -94t-62 -83.5t-80 -84t-77 -70 t-77 -65.5l-51 -43l311 10q83 3 115 96l39 -4l-52 -215h-587z" />
<glyph unicode="&#xbe;" horiz-adv-x="1585" d="M63 674q0 32 23.5 51.5t58.5 19.5q27 0 48 -8q-7 -16 -7 -32q0 -34 24 -54t66 -20q80 0 130.5 54.5t50.5 135.5q0 94 -74.5 143.5t-194.5 49.5l-12 51q240 65 240 215q0 42 -27 73t-78 31q-45 0 -71.5 -29t-26.5 -71q0 -18 10 -45q-46 -12 -57 -12q-40 0 -64 19.5 t-24 53.5q0 61 69.5 111.5t194.5 50.5q100 0 162.5 -50t62.5 -120q0 -77 -54 -129.5t-144 -79.5l2 -10q103 -14 170 -76t67 -153q0 -130 -94 -204.5t-252 -74.5q-84 0 -141.5 31t-57.5 78zM356 -139q116 237 389 826t420 927l101 -45q-190 -382 -445.5 -942t-361.5 -813z M852 266l215 289q76 102 76 203q0 68 -27 102q33 17 66 17q48 0 78 -34.5t30 -78.5q0 -57 -36 -115.5t-113 -150.5l-154 -183h240v177l133 67v-244h174v-86h-174v-120q0 -38 49 -46l51 -10v-53h-330v51l48 12q26 6 37.5 21t11.5 45v100h-357z" />
<glyph unicode="&#xbf;" horiz-adv-x="854" d="M135 -121q0 63 21.5 119.5t55.5 99.5t75 83.5t82.5 77.5t75.5 74t55.5 81.5t21.5 91.5q0 58 -22 104h45q96 -113 96 -223q0 -58 -21 -109t-55 -89.5t-75.5 -75t-82.5 -72t-75 -73t-55 -86t-21 -103.5q0 -62 68 -107t182 -45q125 0 125 86q0 16 -3.5 32.5t-7.5 24.5l-4 9 q38 14 78 14q55 0 93 -27t38 -69q0 -76 -77.5 -120t-215.5 -44q-176 0 -286.5 98t-110.5 248zM397 905q0 51 36 87t87 36t87 -36t36 -87t-36 -87t-87 -36t-87 36t-36 87z" />
<glyph unicode="&#xc0;" horiz-adv-x="1486" d="M31 0v59l53 11q62 11 97 54.5t67 131.5l436 1198l80 12l479 -1269q44 -113 143 -127l70 -11v-59q-120 8 -278 8q-86 0 -160.5 -2t-106.5 -4l-32 -2v59l53 11q58 10 81 31.5t23 60.5q0 34 -26 104l-99 271h-462l-107 -320q-12 -37 -12 -65q0 -37 23.5 -55t88.5 -27l78 -11 v-59q-131 6 -289 6q-54 0 -104 -1.5t-73 -2.5zM475 621h406l-201 577zM506 1817q0 38 21.5 62t54.5 24q9 0 24 -5l154 -311l-19 -18q-83 31 -159 102t-76 146z" />
<glyph unicode="&#xc1;" horiz-adv-x="1486" d="M31 0v59l53 11q62 11 97 54.5t67 131.5l436 1198l80 12l479 -1269q44 -113 143 -127l70 -11v-59q-120 8 -278 8q-86 0 -160.5 -2t-106.5 -4l-32 -2v59l53 11q58 10 81 31.5t23 60.5q0 34 -26 104l-99 271h-462l-107 -320q-12 -37 -12 -65q0 -37 23.5 -55t88.5 -27l78 -11 v-59q-131 6 -289 6q-54 0 -104 -1.5t-73 -2.5zM475 621h406l-201 577zM682 1587l154 311q15 5 24 5q33 0 54.5 -24t21.5 -62q0 -50 -44 -105.5t-96.5 -91.5t-95.5 -51z" />
<glyph unicode="&#xc2;" horiz-adv-x="1486" d="M31 0v59l53 11q62 11 97 54.5t67 131.5l436 1198l80 12l479 -1269q44 -113 143 -127l70 -11v-59q-120 8 -278 8q-86 0 -160.5 -2t-106.5 -4l-32 -2v59l53 11q58 10 81 31.5t23 60.5q0 34 -26 104l-99 271h-462l-107 -320q-12 -37 -12 -65q0 -37 23.5 -55t88.5 -27l78 -11 v-59q-131 6 -289 6q-54 0 -104 -1.5t-73 -2.5zM418 1610l327 268l330 -279q-2 -21 -25 -39t-63 -18q-45 0 -86 24t-71 62.5t-50.5 77t-34.5 78.5l-215 -246zM475 621h406l-201 577z" />
<glyph unicode="&#xc3;" horiz-adv-x="1486" d="M31 0v59l53 11q62 11 97 54.5t67 131.5l436 1198l80 12l479 -1269q44 -113 143 -127l70 -11v-59q-120 8 -278 8q-86 0 -160.5 -2t-106.5 -4l-32 -2v59l53 11q58 10 81 31.5t23 60.5q0 34 -26 104l-99 271h-462l-107 -320q-12 -37 -12 -65q0 -37 23.5 -55t88.5 -27l78 -11 v-59q-131 6 -289 6q-54 0 -104 -1.5t-73 -2.5zM420 1626q14 87 65 141t133 54q42 0 81.5 -15.5t66 -34t63 -34t72.5 -15.5q106 0 141 105l31 -33q-14 -90 -66 -142.5t-141 -52.5q-40 0 -78.5 15.5t-63.5 34t-60.5 34t-71.5 15.5q-106 0 -141 -105zM475 621h406l-201 577z " />
<glyph unicode="&#xc4;" horiz-adv-x="1486" d="M31 0v59l53 11q62 11 97 54.5t67 131.5l436 1198l80 12l479 -1269q44 -113 143 -127l70 -11v-59q-120 8 -278 8q-86 0 -160.5 -2t-106.5 -4l-32 -2v59l53 11q58 10 81 31.5t23 60.5q0 34 -26 104l-99 271h-462l-107 -320q-12 -37 -12 -65q0 -37 23.5 -55t88.5 -27l78 -11 v-59q-131 6 -289 6q-54 0 -104 -1.5t-73 -2.5zM414 1731q0 43 32 74.5t76 31.5q43 0 75 -31.5t32 -74.5t-32 -76t-75 -33q-44 0 -76 33t-32 76zM475 621h406l-201 577zM823 1731q0 43 32 74.5t75 31.5q44 0 76 -31.5t32 -74.5t-32 -76t-76 -33q-43 0 -75 33t-32 76z" />
<glyph unicode="&#xc5;" horiz-adv-x="1486" d="M31 0v59l53 11q62 11 97 54.5t67 131.5l436 1198l80 12l479 -1269q44 -113 143 -127l70 -11v-59q-120 8 -278 8q-86 0 -160.5 -2t-106.5 -4l-32 -2v59l53 11q58 10 81 31.5t23 60.5q0 34 -26 104l-99 271h-462l-107 -320q-12 -37 -12 -65q0 -37 23.5 -55t88.5 -27l78 -11 v-59q-131 6 -289 6q-54 0 -104 -1.5t-73 -2.5zM475 621h406l-201 577zM512 1739q0 85 63.5 150t165.5 65q86 0 144.5 -54.5t58.5 -146.5q0 -87 -63 -152t-166 -65q-87 0 -145 54.5t-58 148.5zM602 1751q0 -67 40 -106t95 -39q117 0 117 133q0 67 -39.5 106t-95.5 39 q-59 0 -88 -36.5t-29 -96.5z" />
<glyph unicode="&#xc6;" horiz-adv-x="1923" d="M27 0v59l65 11q70 10 132 59.5t108 126.5l579 997q11 22 11 35q0 59 -129 76l-78 10v60q254 -7 426 -7q150 0 308 1.5t241 3.5l82 2v-306h-50q-9 108 -95.5 172t-252.5 64q-85 0 -139 -14v-576h156q89 0 130 40t54 116l14 82h51q-6 -151 -6 -260l6 -228h-51l-8 47 q-19 123 -172 123h-174v-491q0 -64 43.5 -98.5t114.5 -34.5q94 0 161.5 17.5t111.5 54.5t70 79t50 105l49 -7l-45 -319q-462 6 -657 6q-86 0 -156 -1.5t-97 -2.5l-28 -2v59l53 11q133 24 133 200v267h-440l-174 -320q-29 -57 -29 -82q0 -49 78 -63l66 -13v-59q-206 8 -310 8 zM641 621h397v688z" />
<glyph unicode="&#xc7;" horiz-adv-x="1478" d="M80 682q0 154 52.5 293.5t148.5 248.5t246.5 173.5t332.5 64.5q98 0 263 -27.5t225 -27.5v-330h-60q-28 140 -150 222.5t-317 82.5q-155 0 -276 -84.5t-185.5 -229.5t-64.5 -325q0 -134 32 -247.5t88.5 -195t133 -138.5t166 -85t186.5 -28q169 0 276.5 85.5t137.5 225.5 l59 -4l-37 -311q-58 0 -136.5 -19.5t-171.5 -39t-187 -19.5q-33 -25 -33 -67q0 -28 17.5 -51t43 -41t51 -38t43 -50.5t17.5 -69.5q0 -70 -76 -117t-174 -47q-75 0 -124.5 28.5t-49.5 79.5q0 31 24.5 54.5t57.5 23.5q19 0 35 -8q-21 -25 -21 -55q0 -28 25.5 -46t79.5 -18 q47 0 74.5 19.5t27.5 52.5q0 24 -25.5 49.5t-55.5 45.5t-55.5 54.5t-25.5 75.5q0 44 24 76.5t54 50.5q-117 6 -219.5 35t-191 86t-151 138t-98.5 197t-36 257z" />
<glyph unicode="&#xc8;" horiz-adv-x="1171" d="M100 0v59l54 11q133 24 133 200v961q0 68 -26.5 96t-92.5 37l-68 10v60q193 -7 289 -7q150 0 311 1.5t246 3.5l86 2v-336h-49q-22 121 -113.5 193.5t-259.5 72.5q-73 0 -127 -14v-576h146q89 0 130 40t54 116l14 82h52q-7 -151 -7 -260q0 -51 2 -108t4 -88l1 -32h-52 l-8 47q-19 123 -172 123h-164v-491q0 -64 43.5 -98.5t114.5 -34.5q75 0 136.5 19t103.5 47.5t76.5 72.5t55.5 84.5t40 91.5l49 -6l-64 -379q-462 6 -657 6zM483 1817q0 38 21.5 62t54.5 24q10 0 25 -5l153 -311l-18 -18q-83 31 -159.5 102t-76.5 146z" />
<glyph unicode="&#xc9;" horiz-adv-x="1171" d="M100 0v59l54 11q133 24 133 200v961q0 68 -26.5 96t-92.5 37l-68 10v60q193 -7 289 -7q150 0 311 1.5t246 3.5l86 2v-336h-49q-22 121 -113.5 193.5t-259.5 72.5q-73 0 -127 -14v-576h146q89 0 130 40t54 116l14 82h52q-7 -151 -7 -260q0 -51 2 -108t4 -88l1 -32h-52 l-8 47q-19 123 -172 123h-164v-491q0 -64 43.5 -98.5t114.5 -34.5q75 0 136.5 19t103.5 47.5t76.5 72.5t55.5 84.5t40 91.5l49 -6l-64 -379q-462 6 -657 6zM580 1587l153 311q15 5 25 5q33 0 54.5 -24t21.5 -62q0 -50 -44 -105.5t-96.5 -91.5t-95.5 -51z" />
<glyph unicode="&#xca;" horiz-adv-x="1171" d="M100 0v59l54 11q133 24 133 200v961q0 68 -26.5 96t-92.5 37l-68 10v60q193 -7 289 -7q150 0 311 1.5t246 3.5l86 2v-336h-49q-22 121 -113.5 193.5t-259.5 72.5q-73 0 -127 -14v-576h146q89 0 130 40t54 116l14 82h52q-7 -151 -7 -260q0 -51 2 -108t4 -88l1 -32h-52 l-8 47q-19 123 -172 123h-164v-491q0 -64 43.5 -98.5t114.5 -34.5q75 0 136.5 19t103.5 47.5t76.5 72.5t55.5 84.5t40 91.5l49 -6l-64 -379q-462 6 -657 6zM289 1610l327 268l330 -279q-2 -21 -25 -39t-63 -18q-45 0 -86 24t-71 62.5t-50.5 77t-34.5 78.5l-215 -246z" />
<glyph unicode="&#xcb;" horiz-adv-x="1171" d="M100 0v59l54 11q133 24 133 200v961q0 68 -26.5 96t-92.5 37l-68 10v60q193 -7 289 -7q150 0 311 1.5t246 3.5l86 2v-336h-49q-22 121 -113.5 193.5t-259.5 72.5q-73 0 -127 -14v-576h146q89 0 130 40t54 116l14 82h52q-7 -151 -7 -260q0 -51 2 -108t4 -88l1 -32h-52 l-8 47q-19 123 -172 123h-164v-491q0 -64 43.5 -98.5t114.5 -34.5q75 0 136.5 19t103.5 47.5t76.5 72.5t55.5 84.5t40 91.5l49 -6l-64 -379q-462 6 -657 6zM309 1731q0 43 32.5 74.5t76.5 31.5q43 0 74.5 -31.5t31.5 -74.5t-32 -76t-74 -33q-44 0 -76.5 33t-32.5 76z M719 1731q0 43 31.5 74.5t74.5 31.5q44 0 76.5 -31.5t32.5 -74.5t-32.5 -76t-76.5 -33q-42 0 -74 33t-32 76z" />
<glyph unicode="&#xcc;" d="M100 0v59l54 11q133 24 133 200v961q0 68 -26.5 96t-92.5 37l-68 10v60q129 -7 289 -7q64 0 134 1.5t109 3.5l38 2v-60l-41 -10q-67 -16 -106.5 -66t-39.5 -135v-960q0 -68 27 -96t92 -37l68 -11v-59q-129 6 -289 6zM219 1817q0 38 21.5 62t54.5 24q9 0 24 -5l154 -311 l-18 -18q-83 31 -159.5 102t-76.5 146z" />
<glyph unicode="&#xcd;" d="M100 0v59l54 11q133 24 133 200v961q0 68 -26.5 96t-92.5 37l-68 10v60q129 -7 289 -7q64 0 134 1.5t109 3.5l38 2v-60l-41 -10q-67 -16 -106.5 -66t-39.5 -135v-960q0 -68 27 -96t92 -37l68 -11v-59q-129 6 -289 6zM334 1587l153 311q15 5 25 5q33 0 54.5 -24t21.5 -62 q0 -50 -44 -105.5t-96.5 -91.5t-95.5 -51z" />
<glyph unicode="&#xce;" d="M63 1610l328 268l330 -279q-2 -21 -25 -39t-63 -18q-45 0 -86 24t-71 62.5t-50.5 77t-34.5 78.5l-215 -246zM100 0v59l54 11q133 24 133 200v961q0 68 -26.5 96t-92.5 37l-68 10v60q129 -7 289 -7q64 0 134 1.5t109 3.5l38 2v-60l-41 -10q-67 -16 -106.5 -66t-39.5 -135 v-960q0 -68 27 -96t92 -37l68 -11v-59q-129 6 -289 6z" />
<glyph unicode="&#xcf;" d="M84 1731q0 43 32.5 74.5t76.5 31.5q43 0 74.5 -31.5t31.5 -74.5t-32 -76t-74 -33q-44 0 -76.5 33t-32.5 76zM100 0v59l54 11q133 24 133 200v961q0 68 -26.5 96t-92.5 37l-68 10v60q129 -7 289 -7q64 0 134 1.5t109 3.5l38 2v-60l-41 -10q-67 -16 -106.5 -66t-39.5 -135 v-960q0 -68 27 -96t92 -37l68 -11v-59q-129 6 -289 6zM494 1731q0 43 31.5 74.5t74.5 31.5q44 0 76.5 -31.5t32.5 -74.5t-32.5 -76t-76.5 -33q-42 0 -74 33t-32 76z" />
<glyph unicode="&#xd0;" horiz-adv-x="1591" d="M51 655v115q125 -2 236 -4v465q0 68 -26.5 96t-92.5 37l-68 10v60q158 -7 289 -7q68 0 172 3.5t168 3.5q160 0 290.5 -35t221 -96.5t152 -148t90 -187.5t28.5 -217q0 -157 -52.5 -292t-153 -238t-257.5 -161.5t-354 -58.5q-53 0 -140.5 3t-172.5 3l-281 -6v59l54 11 q133 24 133 200v389zM483 203q0 -64 43.5 -98.5t114.5 -34.5q80 0 146.5 6.5t135.5 24t122.5 47t102 77t80 111t50 153t18.5 199.5q0 139 -45 261.5t-127 215t-207.5 146t-277.5 53.5q-102 0 -156 -14v-586q289 6 369 6v-115l-369 4v-456z" />
<glyph unicode="&#xd1;" horiz-adv-x="1712" d="M80 0v59l53 11q133 24 133 200v961q0 68 -26.5 96t-92.5 37l-67 10v60q119 -7 323 -7q8 -21 24.5 -44.5t28 -37.5t42.5 -49l848 -968v903q0 69 -27 96.5t-105 36.5l-98 10v60q179 -9 281 -9q41 0 96.5 2.5t90.5 4.5l36 2v-60l-37 -10q-61 -16 -99 -66.5t-38 -134.5v-1173 l-64 -8l-1007 1140v-919q0 -70 29.5 -97t115.5 -36l98 -11v-59q-195 6 -301 6zM543 1626q14 87 65 141t133 54q42 0 81.5 -15.5t66 -34t63 -34t72.5 -15.5q106 0 141 105l31 -33q-14 -90 -66 -142.5t-141 -52.5q-40 0 -78.5 15.5t-63.5 34t-60.5 34t-71.5 15.5 q-107 0 -142 -105z" />
<glyph unicode="&#xd2;" horiz-adv-x="1650" d="M80 682q0 154 52 293.5t149.5 248.5t250.5 173.5t340 64.5q145 0 272 -49t222 -139t150 -226t55 -300q0 -123 -32.5 -237t-98.5 -213t-159.5 -173t-222.5 -116t-280 -42q-145 0 -271.5 49.5t-221.5 139t-150 226t-55 300.5zM295 743q0 -161 47 -295t126.5 -220.5 t181.5 -133.5t214 -47q157 0 270 85.5t167.5 228t54.5 325.5q0 130 -30.5 242.5t-84.5 194.5t-126.5 141t-157 88.5t-175.5 29.5q-94 0 -173 -32t-136.5 -89.5t-97.5 -137t-60 -176t-20 -204.5zM631 1817q0 38 21.5 62t54.5 24q9 0 24 -5l154 -311l-19 -18q-83 31 -159 102 t-76 146z" />
<glyph unicode="&#xd3;" horiz-adv-x="1650" d="M80 682q0 154 52 293.5t149.5 248.5t250.5 173.5t340 64.5q145 0 272 -49t222 -139t150 -226t55 -300q0 -123 -32.5 -237t-98.5 -213t-159.5 -173t-222.5 -116t-280 -42q-145 0 -271.5 49.5t-221.5 139t-150 226t-55 300.5zM295 743q0 -161 47 -295t126.5 -220.5 t181.5 -133.5t214 -47q157 0 270 85.5t167.5 228t54.5 325.5q0 130 -30.5 242.5t-84.5 194.5t-126.5 141t-157 88.5t-175.5 29.5q-94 0 -173 -32t-136.5 -89.5t-97.5 -137t-60 -176t-20 -204.5zM784 1587l154 311q15 5 25 5q33 0 54 -24t21 -62q0 -50 -43.5 -105.5 t-96 -91.5t-95.5 -51z" />
<glyph unicode="&#xd4;" horiz-adv-x="1650" d="M80 682q0 154 52 293.5t149.5 248.5t250.5 173.5t340 64.5q145 0 272 -49t222 -139t150 -226t55 -300q0 -123 -32.5 -237t-98.5 -213t-159.5 -173t-222.5 -116t-280 -42q-145 0 -271.5 49.5t-221.5 139t-150 226t-55 300.5zM295 743q0 -161 47 -295t126.5 -220.5 t181.5 -133.5t214 -47q157 0 270 85.5t167.5 228t54.5 325.5q0 130 -30.5 242.5t-84.5 194.5t-126.5 141t-157 88.5t-175.5 29.5q-94 0 -173 -32t-136.5 -89.5t-97.5 -137t-60 -176t-20 -204.5zM502 1610l327 268l330 -279q-2 -21 -25 -39t-63 -18q-45 0 -86 24t-71 62.5 t-50.5 77t-34.5 78.5l-215 -246z" />
<glyph unicode="&#xd5;" horiz-adv-x="1650" d="M80 682q0 154 52 293.5t149.5 248.5t250.5 173.5t340 64.5q145 0 272 -49t222 -139t150 -226t55 -300q0 -123 -32.5 -237t-98.5 -213t-159.5 -173t-222.5 -116t-280 -42q-145 0 -271.5 49.5t-221.5 139t-150 226t-55 300.5zM295 743q0 -161 47 -295t126.5 -220.5 t181.5 -133.5t214 -47q157 0 270 85.5t167.5 228t54.5 325.5q0 130 -30.5 242.5t-84.5 194.5t-126.5 141t-157 88.5t-175.5 29.5q-94 0 -173 -32t-136.5 -89.5t-97.5 -137t-60 -176t-20 -204.5zM520 1626q14 87 65.5 141t133.5 54q42 0 81.5 -15.5t65.5 -34t62.5 -34 t72.5 -15.5q107 0 142 105l31 -33q-14 -90 -66 -142.5t-141 -52.5q-40 0 -78.5 15.5t-63.5 34t-61 34t-72 15.5q-106 0 -141 -105z" />
<glyph unicode="&#xd6;" horiz-adv-x="1650" d="M80 682q0 154 52 293.5t149.5 248.5t250.5 173.5t340 64.5q145 0 272 -49t222 -139t150 -226t55 -300q0 -123 -32.5 -237t-98.5 -213t-159.5 -173t-222.5 -116t-280 -42q-145 0 -271.5 49.5t-221.5 139t-150 226t-55 300.5zM295 743q0 -161 47 -295t126.5 -220.5 t181.5 -133.5t214 -47q157 0 270 85.5t167.5 228t54.5 325.5q0 130 -30.5 242.5t-84.5 194.5t-126.5 141t-157 88.5t-175.5 29.5q-94 0 -173 -32t-136.5 -89.5t-97.5 -137t-60 -176t-20 -204.5zM522 1731q0 43 32.5 74.5t76.5 31.5q43 0 74.5 -31.5t31.5 -74.5t-32 -76 t-74 -33q-44 0 -76.5 33t-32.5 76zM932 1731q0 43 31.5 74.5t74.5 31.5q44 0 76.5 -31.5t32.5 -74.5t-32.5 -76t-76.5 -33q-42 0 -74 33t-32 76z" />
<glyph unicode="&#xd7;" horiz-adv-x="1138" d="M119 100l358 353l-358 358l96 92l354 -356l355 356l98 -92l-360 -358l360 -353l-96 -94l-357 356l-356 -356z" />
<glyph unicode="&#xd8;" horiz-adv-x="1650" d="M80 682q0 154 52 293.5t149.5 248.5t250.5 173.5t340 64.5q204 0 367 -94l102 141h136q-101 -127 -154 -198q117 -95 182.5 -238.5t65.5 -324.5q0 -123 -32.5 -237t-98.5 -213t-159.5 -173t-222.5 -116t-280 -42q-216 0 -381 103l-104 -142h-135q21 28 79.5 103t75.5 98 q-110 95 -171.5 235.5t-61.5 317.5zM295 743q0 -274 133 -464q25 33 157 204.5t195 259.5q64 90 189 255.5t178 238.5q-157 145 -365 145q-94 0 -173 -32t-136.5 -89.5t-97.5 -137t-60 -176t-20 -204.5zM492 203q156 -156 372 -156q157 0 270 85.5t167.5 228t54.5 325.5 q0 287 -146 477q-210 -274 -362 -479q-298 -400 -356 -481z" />
<glyph unicode="&#xd9;" horiz-adv-x="1611" d="M100 1374v60q129 -7 289 -7q76 0 148.5 1.5t107.5 3.5l35 2v-60l-51 -10q-66 -13 -106 -64t-40 -137v-690q0 -98 18 -169.5t60.5 -127t117.5 -83t183 -27.5q375 0 375 407v758q0 69 -27 97t-92 36l-78 10v60q140 -7 246 -7l246 7v-60l-41 -10q-67 -16 -106 -66t-39 -135 v-684q0 -257 -128 -384.5t-401 -127.5q-530 0 -530 512v752q0 68 -26.5 96t-92.5 37zM657 1817q0 38 21.5 62t54.5 24q10 0 25 -5l153 -311l-18 -18q-83 31 -159.5 102t-76.5 146z" />
<glyph unicode="&#xda;" horiz-adv-x="1611" d="M100 1374v60q129 -7 289 -7q76 0 148.5 1.5t107.5 3.5l35 2v-60l-51 -10q-66 -13 -106 -64t-40 -137v-690q0 -98 18 -169.5t60.5 -127t117.5 -83t183 -27.5q375 0 375 407v758q0 69 -27 97t-92 36l-78 10v60q140 -7 246 -7l246 7v-60l-41 -10q-67 -16 -106 -66t-39 -135 v-684q0 -257 -128 -384.5t-401 -127.5q-530 0 -530 512v752q0 68 -26.5 96t-92.5 37zM819 1587l154 311q15 5 24 5q33 0 54.5 -24t21.5 -62q0 -50 -43.5 -105.5t-96 -91.5t-95.5 -51z" />
<glyph unicode="&#xdb;" horiz-adv-x="1611" d="M100 1374v60q129 -7 289 -7q76 0 148.5 1.5t107.5 3.5l35 2v-60l-51 -10q-66 -13 -106 -64t-40 -137v-690q0 -98 18 -169.5t60.5 -127t117.5 -83t183 -27.5q375 0 375 407v758q0 69 -27 97t-92 36l-78 10v60q140 -7 246 -7l246 7v-60l-41 -10q-67 -16 -106 -66t-39 -135 v-684q0 -257 -128 -384.5t-401 -127.5q-530 0 -530 512v752q0 68 -26.5 96t-92.5 37zM532 1610l328 268l330 -279q-2 -21 -25 -39t-63 -18q-45 0 -86 24t-71 62.5t-50.5 77t-34.5 78.5l-215 -246z" />
<glyph unicode="&#xdc;" horiz-adv-x="1611" d="M100 1374v60q129 -7 289 -7q76 0 148.5 1.5t107.5 3.5l35 2v-60l-51 -10q-66 -13 -106 -64t-40 -137v-690q0 -98 18 -169.5t60.5 -127t117.5 -83t183 -27.5q375 0 375 407v758q0 69 -27 97t-92 36l-78 10v60q140 -7 246 -7l246 7v-60l-41 -10q-67 -16 -106 -66t-39 -135 v-684q0 -257 -128 -384.5t-401 -127.5q-530 0 -530 512v752q0 68 -26.5 96t-92.5 37zM555 1731q0 43 32.5 74.5t76.5 31.5q43 0 74.5 -31.5t31.5 -74.5t-32 -76t-74 -33q-44 0 -76.5 33t-32.5 76zM965 1731q0 43 31.5 74.5t74.5 31.5q44 0 76.5 -31.5t32.5 -74.5t-32.5 -76 t-76.5 -33q-42 0 -74 33t-32 76z" />
<glyph unicode="&#xdd;" horiz-adv-x="1384" d="M41 1374v60q143 -7 258 -7l264 7v-60l-41 -10q-57 -14 -57 -74q0 -32 20 -73l281 -525l278 549q19 40 19 64q0 47 -76 59l-61 10v60q127 -7 225 -7q53 0 101 1.5t70 3.5l21 2v-60l-40 -10q-62 -15 -96.5 -41t-61.5 -78l-342 -643v-399q0 -68 27 -96t92 -37l67 -11v-59 q-129 6 -289 6l-280 -6v59l53 11q133 24 133 200v332l-364 672q-24 43 -52 63t-81 27zM741 1587l154 311q15 5 25 5q33 0 54 -24t21 -62q0 -50 -43.5 -105.5t-96 -91.5t-95.5 -51z" />
<glyph unicode="&#xde;" horiz-adv-x="1193" d="M100 0v59l56 11q63 12 97 70t34 149v917q0 83 -29 116.5t-90 41.5l-68 10v60q166 -9 289 -9q57 0 127.5 2.5t111.5 4.5l42 2v-60l-62 -10q-123 -21 -123 -207v-67q16 1 47 15.5t79.5 29t109.5 14.5q161 0 277 -120.5t116 -289.5q0 -103 -50 -197t-141.5 -154t-201.5 -60 q-61 0 -109.5 14.5t-79.5 29t-47 15.5v-186q0 -79 20 -103t81 -30l84 -9v-59q-148 8 -273 8zM485 449q15 0 74.5 -16.5t108.5 -16.5q105 0 170 93.5t65 229.5q0 134 -65 228t-170 94q-49 0 -108.5 -16.5t-74.5 -16.5v-579z" />
<glyph unicode="&#xdf;" horiz-adv-x="1234" d="M63 0v55l56 8q47 6 77.5 43.5t30.5 94.5v628h-135l-8 45q98 23 143 64v111q0 61 13.5 124t48.5 129.5t87 117.5t136.5 83.5t189.5 32.5q173 0 284.5 -74t111.5 -190q0 -48 -20.5 -92t-54 -78t-73.5 -65.5t-79.5 -60t-73 -55.5t-54 -58.5t-20.5 -63.5q0 -38 25.5 -72 t66 -61.5t89.5 -55t98.5 -59t90 -67t66 -86t25.5 -109.5q0 -135 -101.5 -228.5t-263.5 -93.5q-64 0 -126 19.5t-108 63t-46 102.5q0 100 127 100l59 -6q-14 -35 -14 -72q0 -56 33 -94.5t104 -38.5q85 0 139.5 51t54.5 123q0 51 -25.5 93t-66 71.5t-90 56.5t-99 55t-90 58.5 t-66 74.5t-25.5 97q0 50 19.5 91t50.5 70t68.5 56.5t75 57t68.5 63t50.5 83.5t19.5 111q0 93 -70.5 146t-185.5 53q-140 0 -206.5 -99.5t-66.5 -275.5v-1077h-340z" />
<glyph unicode="&#xe0;" horiz-adv-x="960" d="M68 176q0 66 32 118.5t83 85.5t121 54.5t140 30t146 8.5q6 137 6 205q0 90 -37.5 140t-128.5 50q-68 0 -102.5 -30.5t-34.5 -73.5q0 -46 26 -76q-42 -31 -98 -31q-50 0 -79 25.5t-29 69.5q0 82 109.5 142t252.5 60q291 0 291 -313q0 -63 -5 -193.5t-5 -199.5 q0 -86 19 -127t77 -41q23 0 44 5t30 10l10 5l18 -34q-2 -4 -7 -10.5t-22 -24t-36 -30.5t-50.5 -23.5t-64.5 -10.5q-67 0 -108.5 35.5t-55.5 85.5q-26 -6 -60.5 -26.5t-63 -41t-78 -37t-105.5 -16.5q-111 0 -173 54.5t-62 154.5zM248 199q0 -64 36.5 -96.5t92.5 -32.5 q57 0 126 28.5t93 34.5q-10 57 -10 133l2 142q-147 0 -243.5 -54t-96.5 -155zM250 1419q0 38 23 62t59 24q12 0 24 -4l217 -428l-18 -18q-37 20 -87 60t-99.5 90.5t-84 109t-34.5 104.5z" />
<glyph unicode="&#xe1;" horiz-adv-x="960" d="M68 176q0 66 32 118.5t83 85.5t121 54.5t140 30t146 8.5q6 137 6 205q0 90 -37.5 140t-128.5 50q-68 0 -102.5 -30.5t-34.5 -73.5q0 -46 26 -76q-42 -31 -98 -31q-50 0 -79 25.5t-29 69.5q0 82 109.5 142t252.5 60q291 0 291 -313q0 -63 -5 -193.5t-5 -199.5 q0 -86 19 -127t77 -41q23 0 44 5t30 10l10 5l18 -34q-2 -4 -7 -10.5t-22 -24t-36 -30.5t-50.5 -23.5t-64.5 -10.5q-67 0 -108.5 35.5t-55.5 85.5q-26 -6 -60.5 -26.5t-63 -41t-78 -37t-105.5 -16.5q-111 0 -173 54.5t-62 154.5zM248 199q0 -64 36.5 -96.5t92.5 -32.5 q57 0 126 28.5t93 34.5q-10 57 -10 133l2 142q-147 0 -243.5 -54t-96.5 -155zM395 1073l217 428q12 4 25 4q36 0 59 -24t23 -62q0 -46 -34.5 -104.5t-84 -109t-99.5 -90.5t-87 -60z" />
<glyph unicode="&#xe2;" horiz-adv-x="960" d="M68 176q0 66 32 118.5t83 85.5t121 54.5t140 30t146 8.5q6 137 6 205q0 90 -37.5 140t-128.5 50q-68 0 -102.5 -30.5t-34.5 -73.5q0 -46 26 -76q-42 -31 -98 -31q-50 0 -79 25.5t-29 69.5q0 82 109.5 142t252.5 60q291 0 291 -313q0 -63 -5 -193.5t-5 -199.5 q0 -86 19 -127t77 -41q23 0 44 5t30 10l10 5l18 -34q-2 -4 -7 -10.5t-22 -24t-36 -30.5t-50.5 -23.5t-64.5 -10.5q-67 0 -108.5 35.5t-55.5 85.5q-26 -6 -60.5 -26.5t-63 -41t-78 -37t-105.5 -16.5q-111 0 -173 54.5t-62 154.5zM139 1130l330 369l330 -360q-2 -20 -24 -39 t-56 -19q-44 0 -87 35.5t-76 93t-54 103t-37 92.5l-199 -324zM248 199q0 -64 36.5 -96.5t92.5 -32.5q57 0 126 28.5t93 34.5q-10 57 -10 133l2 142q-147 0 -243.5 -54t-96.5 -155z" />
<glyph unicode="&#xe3;" horiz-adv-x="960" d="M68 176q0 66 32 118.5t83 85.5t121 54.5t140 30t146 8.5q6 137 6 205q0 90 -37.5 140t-128.5 50q-68 0 -102.5 -30.5t-34.5 -73.5q0 -46 26 -76q-42 -31 -98 -31q-50 0 -79 25.5t-29 69.5q0 82 109.5 142t252.5 60q291 0 291 -313q0 -63 -5 -193.5t-5 -199.5 q0 -86 19 -127t77 -41q23 0 44 5t30 10l10 5l18 -34q-2 -4 -7 -10.5t-22 -24t-36 -30.5t-50.5 -23.5t-64.5 -10.5q-67 0 -108.5 35.5t-55.5 85.5q-26 -6 -60.5 -26.5t-63 -41t-78 -37t-105.5 -16.5q-111 0 -173 54.5t-62 154.5zM154 1192q14 87 65 140.5t133 53.5 q53 0 100.5 -24.5t92.5 -49t90 -24.5q106 0 141 105l31 -33q-14 -90 -66 -142.5t-141 -52.5q-40 0 -78.5 15.5t-63.5 34t-60.5 34t-71.5 15.5q-107 0 -142 -105zM248 199q0 -64 36.5 -96.5t92.5 -32.5q57 0 126 28.5t93 34.5q-10 57 -10 133l2 142q-147 0 -243.5 -54 t-96.5 -155z" />
<glyph unicode="&#xe4;" horiz-adv-x="960" d="M68 176q0 66 32 118.5t83 85.5t121 54.5t140 30t146 8.5q6 137 6 205q0 90 -37.5 140t-128.5 50q-68 0 -102.5 -30.5t-34.5 -73.5q0 -46 26 -76q-42 -31 -98 -31q-50 0 -79 25.5t-29 69.5q0 82 109.5 142t252.5 60q291 0 291 -313q0 -63 -5 -193.5t-5 -199.5 q0 -86 19 -127t77 -41q23 0 44 5t30 10l10 5l18 -34q-2 -4 -7 -10.5t-22 -24t-36 -30.5t-50.5 -23.5t-64.5 -10.5q-67 0 -108.5 35.5t-55.5 85.5q-26 -6 -60.5 -26.5t-63 -41t-78 -37t-105.5 -16.5q-111 0 -173 54.5t-62 154.5zM170 1247q0 43 32.5 75t76.5 32 q43 0 74.5 -32t31.5 -75t-31.5 -75.5t-74.5 -32.5q-44 0 -76.5 32.5t-32.5 75.5zM248 199q0 -64 36.5 -96.5t92.5 -32.5q57 0 126 28.5t93 34.5q-10 57 -10 133l2 142q-147 0 -243.5 -54t-96.5 -155zM549 1247q0 43 31.5 75t74.5 32q44 0 76.5 -32t32.5 -75t-32.5 -75.5 t-76.5 -32.5q-43 0 -74.5 32.5t-31.5 75.5z" />
<glyph unicode="&#xe5;" horiz-adv-x="960" d="M68 176q0 66 32 118.5t83 85.5t121 54.5t140 30t146 8.5q6 137 6 205q0 90 -37.5 140t-128.5 50q-68 0 -102.5 -30.5t-34.5 -73.5q0 -46 26 -76q-42 -31 -98 -31q-50 0 -79 25.5t-29 69.5q0 82 109.5 142t252.5 60q291 0 291 -313q0 -63 -5 -193.5t-5 -199.5 q0 -86 19 -127t77 -41q23 0 44 5t30 10l10 5l18 -34q-2 -4 -7 -10.5t-22 -24t-36 -30.5t-50.5 -23.5t-64.5 -10.5q-67 0 -108.5 35.5t-55.5 85.5q-26 -6 -60.5 -26.5t-63 -41t-78 -37t-105.5 -16.5q-111 0 -173 54.5t-62 154.5zM248 199q0 -64 36.5 -96.5t92.5 -32.5 q57 0 126 28.5t93 34.5q-10 57 -10 133l2 142q-147 0 -243.5 -54t-96.5 -155zM264 1305q0 85 64 150t166 65q86 0 144 -54.5t58 -146.5q0 -87 -63 -152t-166 -65q-87 0 -145 54.5t-58 148.5zM354 1317q0 -67 40.5 -106.5t94.5 -39.5q117 0 117 134q0 67 -39.5 106t-95.5 39 q-59 0 -88 -36.5t-29 -96.5z" />
<glyph unicode="&#xe6;" horiz-adv-x="1464" d="M68 176q0 82 49 142t129.5 92t166.5 46.5t177 14.5q6 98 6 207q0 90 -37.5 140t-128.5 50q-68 0 -102.5 -30.5t-34.5 -73.5q0 -46 26 -76q-42 -31 -98 -31q-50 0 -79 25.5t-29 69.5q0 82 109.5 142t252.5 60q109 0 174.5 -42t85.5 -111q50 68 144.5 110.5t199.5 42.5 q159 0 240.5 -87t81.5 -249l-33 -28h-600q-4 -33 -4 -90q0 -191 91 -295.5t253 -104.5q141 0 256 62l16 -39q-139 -156 -360 -156q-220 0 -336 154q-32 -11 -74.5 -38.5t-77.5 -52t-96 -44t-133 -19.5q-111 0 -173 54.5t-62 154.5zM248 199q0 -129 129 -129q55 0 105 18 t97.5 43t77.5 33q-33 44 -50 112t-17 132q-145 0 -243.5 -56.5t-98.5 -152.5zM776 647l445 25q2 14 2 30q0 181 -193 181q-92 0 -162 -65t-92 -171z" />
<glyph unicode="&#xe7;" horiz-adv-x="925" d="M66 438q0 100 35.5 192t100 164.5t164 116t218.5 43.5q72 0 135.5 -17.5t107 -56.5t43.5 -92q0 -44 -40.5 -72t-90.5 -28q-30 0 -57 12q8 21 8 48q0 46 -42.5 80t-143.5 34q-114 0 -186 -96.5t-72 -286.5q0 -73 21.5 -140t62.5 -121.5t110.5 -87t157.5 -32.5 q137 0 233 47l21 -39q-14 -17 -37.5 -36t-65 -44t-104.5 -41.5t-135 -17.5q-8 -13 -8 -37q0 -28 17.5 -51t43 -41t51 -37.5t43 -50t17.5 -69.5q0 -70 -76 -117t-174 -47q-75 0 -124.5 28.5t-49.5 79.5q0 31 24.5 54.5t57.5 23.5q19 0 35 -8q-21 -25 -21 -55q0 -28 25.5 -46 t79.5 -18q47 0 74.5 19.5t27.5 52.5q0 24 -25.5 49t-55.5 43.5t-55.5 50t-25.5 68.5q0 64 60 110q-52 9 -102 28.5t-102.5 57.5t-91.5 88.5t-64 127t-25 167.5z" />
<glyph unicode="&#xe8;" horiz-adv-x="946" d="M66 438q0 133 59 249.5t174 191.5t262 75q159 0 240.5 -87t81.5 -249l-33 -28h-600q-4 -33 -4 -90q0 -191 90.5 -295.5t251.5 -104.5q143 0 258 62l16 -39q-139 -156 -360 -156q-106 0 -190.5 36.5t-137.5 101t-80.5 149.5t-27.5 184zM258 647l444 25q3 14 3 30 q0 92 -49.5 136.5t-137.5 44.5q-93 0 -165.5 -65.5t-94.5 -170.5zM276 1419q0 38 23 62t59 24q13 0 25 -4l217 -428l-18 -18q-52 28 -120 86t-127 138t-59 140z" />
<glyph unicode="&#xe9;" horiz-adv-x="946" d="M66 438q0 133 59 249.5t174 191.5t262 75q159 0 240.5 -87t81.5 -249l-33 -28h-600q-4 -33 -4 -90q0 -191 90.5 -295.5t251.5 -104.5q143 0 258 62l16 -39q-139 -156 -360 -156q-106 0 -190.5 36.5t-137.5 101t-80.5 149.5t-27.5 184zM258 647l444 25q3 14 3 30 q0 92 -49.5 136.5t-137.5 44.5q-93 0 -165.5 -65.5t-94.5 -170.5zM457 1073l217 428q12 4 24 4q36 0 59 -24t23 -62q0 -46 -34.5 -104.5t-84 -109t-99.5 -90.5t-87 -60z" />
<glyph unicode="&#xea;" horiz-adv-x="946" d="M66 438q0 133 59 249.5t174 191.5t262 75q159 0 240.5 -87t81.5 -249l-33 -28h-600q-4 -33 -4 -90q0 -191 90.5 -295.5t251.5 -104.5q143 0 258 62l16 -39q-139 -156 -360 -156q-106 0 -190.5 36.5t-137.5 101t-80.5 149.5t-27.5 184zM207 1130l330 369l329 -360 q-2 -20 -24 -39t-56 -19q-44 0 -87 35.5t-76 93t-54 103t-37 92.5l-198 -324zM258 647l444 25q3 14 3 30q0 92 -49.5 136.5t-137.5 44.5q-93 0 -165.5 -65.5t-94.5 -170.5z" />
<glyph unicode="&#xeb;" horiz-adv-x="946" d="M66 438q0 133 59 249.5t174 191.5t262 75q159 0 240.5 -87t81.5 -249l-33 -28h-600q-4 -33 -4 -90q0 -191 90.5 -295.5t251.5 -104.5q143 0 258 62l16 -39q-139 -156 -360 -156q-106 0 -190.5 36.5t-137.5 101t-80.5 149.5t-27.5 184zM238 1247q0 43 32 75t76 32 q43 0 75 -32t32 -75t-32 -75.5t-75 -32.5q-44 0 -76 32.5t-32 75.5zM258 647l444 25q3 14 3 30q0 92 -49.5 136.5t-137.5 44.5q-93 0 -165.5 -65.5t-94.5 -170.5zM616 1247q0 43 32 75t75 32q44 0 76 -32t32 -75t-32 -75.5t-76 -32.5q-43 0 -75 32.5t-32 75.5z" />
<glyph unicode="&#xec;" horiz-adv-x="630" d="M70 1419q0 38 23 62t59 24q12 0 24 -4l217 -428l-18 -18q-37 20 -87 60t-99.5 90.5t-84 109t-34.5 104.5zM74 0v55l55 8q47 6 78 43.5t31 94.5v489q0 67 -33 95t-121 28l-10 45q84 8 169 31.5t128 42.5l43 20v-768q0 -70 15.5 -92.5t64.5 -28.5l65 -8v-55q-141 6 -231 6z " />
<glyph unicode="&#xed;" horiz-adv-x="630" d="M74 0v55l55 8q47 6 78 43.5t31 94.5v489q0 67 -33 95t-121 28l-10 45q84 8 169 31.5t128 42.5l43 20v-768q0 -70 15.5 -92.5t64.5 -28.5l65 -8v-55q-141 6 -231 6zM211 1073l217 428q12 4 25 4q36 0 59 -24t23 -62q0 -60 -59 -140t-127 -138t-120 -86z" />
<glyph unicode="&#xee;" horiz-adv-x="630" d="M-14 1130l329 369l330 -360q-2 -20 -24 -39t-56 -19q-44 0 -87 35.5t-76 93t-54 103t-37 92.5l-198 -324zM74 0v55l55 8q47 6 78 43.5t31 94.5v489q0 67 -33 95t-121 28l-10 45q84 8 169 31.5t128 42.5l43 20v-768q0 -70 15.5 -92.5t64.5 -28.5l65 -8v-55q-141 6 -231 6z " />
<glyph unicode="&#xef;" horiz-adv-x="630" d="M18 1247q0 43 32.5 75t76.5 32q43 0 74.5 -32t31.5 -75t-31.5 -75.5t-74.5 -32.5q-44 0 -76.5 32.5t-32.5 75.5zM74 0v55l55 8q47 6 78 43.5t31 94.5v489q0 67 -33 95t-121 28l-10 45q84 8 169 31.5t128 42.5l43 20v-768q0 -70 15.5 -92.5t64.5 -28.5l65 -8v-55 q-141 6 -231 6zM397 1247q0 43 32 75t75 32q44 0 76 -32t32 -75t-32 -75.5t-76 -32.5q-43 0 -75 32.5t-32 75.5z" />
<glyph unicode="&#xf0;" horiz-adv-x="1101" d="M66 438q0 99 35 191t99 165t163.5 116.5t218.5 43.5q151 0 266 -80q-10 98 -45.5 197.5t-81.5 171.5l-203 -92l-35 76l187 86q-58 75 -164.5 125.5t-216.5 56.5l39 61q126 0 244 -52t204 -144l225 102l35 -76l-207 -94q103 -127 155 -314t52 -398q0 -89 -14.5 -171.5 t-51.5 -164.5t-93.5 -142t-148.5 -97.5t-208 -37.5q-125 0 -227.5 55t-164.5 163.5t-62 252.5zM256 479q0 -200 94 -318t223 -118q93 0 156 54t90 141t27 204q0 200 -94.5 317.5t-223.5 117.5q-71 0 -124.5 -30t-85 -85t-47 -125.5t-15.5 -157.5z" />
<glyph unicode="&#xf1;" horiz-adv-x="1167" d="M51 0v55l58 8q47 6 77.5 43.5t30.5 94.5v489q0 67 -33 95t-121 28l-12 45q84 8 169.5 31.5t129.5 42.5l43 20v-149q14 4 50 29.5t74 51.5t95.5 48t112.5 22q131 0 199.5 -75t68.5 -195v-500q0 -71 15.5 -93t66.5 -28l64 -8v-55q-136 6 -226 6l-245 -6v55l43 8 q48 9 78 45.5t30 92.5v461q0 167 -162 167q-47 0 -95.5 -17.5t-93.5 -39.5t-75 -27v-561q0 -72 15 -94t65 -27l66 -8v-55q-142 6 -234 6zM287 1192q14 87 65 140.5t133 53.5q53 0 100.5 -24.5t92.5 -49t90 -24.5q106 0 141 105l31 -33q-14 -90 -66 -142.5t-141 -52.5 q-40 0 -78.5 15.5t-63.5 34t-60.5 34t-71.5 15.5q-107 0 -142 -105z" />
<glyph unicode="&#xf2;" horiz-adv-x="1101" d="M66 438q0 99 35 191t99.5 165t164 116.5t219.5 43.5q92 0 174 -32.5t144 -92t98 -149t36 -197.5q0 -99 -35 -191t-99 -165t-163.5 -116.5t-218.5 -43.5q-194 0 -324 127.5t-130 343.5zM256 479q0 -199 94 -315.5t223 -116.5q139 0 206 107.5t67 287.5q0 199 -94 314.5 t-224 115.5q-138 0 -205 -107t-67 -286zM285 1419q0 38 23 62t59 24q12 0 24 -4l217 -428l-18 -18q-37 20 -87 60t-99.5 90.5t-84 109t-34.5 104.5z" />
<glyph unicode="&#xf3;" horiz-adv-x="1101" d="M66 438q0 99 35 191t99.5 165t164 116.5t219.5 43.5q92 0 174 -32.5t144 -92t98 -149t36 -197.5q0 -99 -35 -191t-99 -165t-163.5 -116.5t-218.5 -43.5q-194 0 -324 127.5t-130 343.5zM256 479q0 -199 94 -315.5t223 -116.5q139 0 206 107.5t67 287.5q0 199 -94 314.5 t-224 115.5q-138 0 -205 -107t-67 -286zM473 1073l217 428q12 4 25 4q36 0 59 -24t23 -62q0 -46 -34.5 -104.5t-84 -109t-99.5 -90.5t-87 -60z" />
<glyph unicode="&#xf4;" horiz-adv-x="1101" d="M66 438q0 99 35 191t99.5 165t164 116.5t219.5 43.5q92 0 174 -32.5t144 -92t98 -149t36 -197.5q0 -99 -35 -191t-99 -165t-163.5 -116.5t-218.5 -43.5q-194 0 -324 127.5t-130 343.5zM233 1130l330 369l330 -360q-2 -20 -24 -39t-56 -19q-44 0 -87 35.5t-76 93t-54 103 t-37 92.5l-199 -324zM256 479q0 -199 94 -315.5t223 -116.5q139 0 206 107.5t67 287.5q0 199 -94 314.5t-224 115.5q-138 0 -205 -107t-67 -286z" />
<glyph unicode="&#xf5;" horiz-adv-x="1101" d="M66 438q0 99 35 191t99.5 165t164 116.5t219.5 43.5q92 0 174 -32.5t144 -92t98 -149t36 -197.5q0 -99 -35 -191t-99 -165t-163.5 -116.5t-218.5 -43.5q-194 0 -324 127.5t-130 343.5zM238 1192q14 87 65 140.5t133 53.5q53 0 100.5 -24.5t92.5 -49t90 -24.5 q106 0 141 105l31 -33q-14 -90 -66 -142.5t-141 -52.5q-40 0 -78.5 15.5t-63.5 34t-60.5 34t-71.5 15.5q-107 0 -142 -105zM256 479q0 -199 94 -315.5t223 -116.5q139 0 206 107.5t67 287.5q0 199 -94 314.5t-224 115.5q-138 0 -205 -107t-67 -286z" />
<glyph unicode="&#xf6;" horiz-adv-x="1101" d="M66 438q0 99 35 191t99.5 165t164 116.5t219.5 43.5q92 0 174 -32.5t144 -92t98 -149t36 -197.5q0 -99 -35 -191t-99 -165t-163.5 -116.5t-218.5 -43.5q-194 0 -324 127.5t-130 343.5zM256 479q0 -199 94 -315.5t223 -116.5q139 0 206 107.5t67 287.5q0 199 -94 314.5 t-224 115.5q-138 0 -205 -107t-67 -286zM274 1247q0 43 32.5 75t76.5 32q43 0 74.5 -32t31.5 -75t-31.5 -75.5t-74.5 -32.5q-44 0 -76.5 32.5t-32.5 75.5zM653 1247q0 43 32 75t75 32q44 0 76 -32t32 -75t-32 -75.5t-76 -32.5q-43 0 -75 32.5t-32 75.5z" />
<glyph unicode="&#xf7;" horiz-adv-x="933" d="M0 391v121h934v-121h-934zM332 104q0 56 39 95t96 39q56 0 95.5 -39.5t39.5 -94.5q0 -58 -39.5 -97.5t-95.5 -39.5q-57 0 -96 39.5t-39 97.5zM332 803q0 56 39 94.5t96 38.5q56 0 95.5 -39t39.5 -94q0 -58 -39.5 -97.5t-95.5 -39.5q-57 0 -96 39.5t-39 97.5z" />
<glyph unicode="&#xf8;" horiz-adv-x="1103" d="M45 -33l135 144q-114 127 -114 327q0 99 35 191t99 165t163.5 116.5t218.5 43.5q155 0 274 -86l72 84h143l-147 -145q112 -128 112 -324q0 -99 -35 -191t-99 -165t-163.5 -116.5t-218.5 -43.5q-150 0 -268 78l-66 -78h-141zM256 479q0 -133 45 -235l453 510 q-87 118 -226 118q-138 0 -205 -107t-67 -286zM350 164q88 -117 223 -117q138 0 205.5 108t67.5 287q0 134 -45 232q-82 -89 -451 -510z" />
<glyph unicode="&#xf9;" horiz-adv-x="1134" d="M33 852v55l297 33l20 -20v-633q0 -87 44.5 -131.5t111.5 -44.5q58 0 104.5 16t92 38.5t81.5 31.5v532q0 68 -31 95.5t-110 27.5v55l297 33l21 -20v-691q0 -69 32 -96t121 -27l10 -45q-76 -6 -158 -29.5t-126 -43.5l-43 -21l-13 170q-19 -2 -56.5 -29.5t-76 -58.5 t-96.5 -56.5t-113 -25.5q-131 0 -199.5 75.5t-68.5 195.5v491q0 68 -31 95.5t-110 27.5zM313 1419q0 38 23 62t59 24q13 0 25 -4l217 -428l-19 -18q-37 20 -87 60t-99.5 90.5t-84 109t-34.5 104.5z" />
<glyph unicode="&#xfa;" horiz-adv-x="1134" d="M33 852v55l297 33l20 -20v-633q0 -87 44.5 -131.5t111.5 -44.5q58 0 104.5 16t92 38.5t81.5 31.5v532q0 68 -31 95.5t-110 27.5v55l297 33l21 -20v-691q0 -69 32 -96t121 -27l10 -45q-76 -6 -158 -29.5t-126 -43.5l-43 -21l-13 170q-19 -2 -56.5 -29.5t-76 -58.5 t-96.5 -56.5t-113 -25.5q-131 0 -199.5 75.5t-68.5 195.5v491q0 68 -31 95.5t-110 27.5zM506 1073l217 428q12 4 25 4q35 0 58 -24t23 -62q0 -46 -34.5 -104.5t-84 -109t-99.5 -90.5t-87 -60z" />
<glyph unicode="&#xfb;" horiz-adv-x="1134" d="M33 852v55l297 33l20 -20v-633q0 -87 44.5 -131.5t111.5 -44.5q58 0 104.5 16t92 38.5t81.5 31.5v532q0 68 -31 95.5t-110 27.5v55l297 33l21 -20v-691q0 -69 32 -96t121 -27l10 -45q-76 -6 -158 -29.5t-126 -43.5l-43 -21l-13 170q-19 -2 -56.5 -29.5t-76 -58.5 t-96.5 -56.5t-113 -25.5q-131 0 -199.5 75.5t-68.5 195.5v491q0 68 -31 95.5t-110 27.5zM238 1130l329 369l330 -360q-2 -20 -24 -39t-56 -19q-44 0 -87 35.5t-76 93t-54 103t-37 92.5l-198 -324z" />
<glyph unicode="&#xfc;" horiz-adv-x="1134" d="M33 852v55l297 33l20 -20v-633q0 -87 44.5 -131.5t111.5 -44.5q58 0 104.5 16t92 38.5t81.5 31.5v532q0 68 -31 95.5t-110 27.5v55l297 33l21 -20v-691q0 -69 32 -96t121 -27l10 -45q-76 -6 -158 -29.5t-126 -43.5l-43 -21l-13 170q-19 -2 -56.5 -29.5t-76 -58.5 t-96.5 -56.5t-113 -25.5q-131 0 -199.5 75.5t-68.5 195.5v491q0 68 -31 95.5t-110 27.5zM270 1247q0 43 32.5 75t76.5 32q43 0 74.5 -32t31.5 -75t-31.5 -75.5t-74.5 -32.5q-44 0 -76.5 32.5t-32.5 75.5zM649 1247q0 43 32 75t75 32q44 0 76 -32t32 -75t-32 -75.5t-76 -32.5 q-43 0 -75 32.5t-32 75.5z" />
<glyph unicode="&#xfd;" horiz-adv-x="1060" d="M-37 -315q0 37 29 65.5t82 28.5q24 0 32 -4q-4 -12 -4 -23q0 -80 93 -80q150 0 223 185l51 127l-264 747q-23 67 -51 93.5t-70 33.5l-55 8v56q155 -7 247 -7l207 7v-56l-51 -8q-61 -9 -61 -47q0 -15 4 -29l182 -589l225 577q11 33 11 39q0 40 -54 49l-55 8v56 q86 -7 195 -7q40 0 79.5 1.5t58.5 3.5l19 2v-56l-30 -6q-49 -10 -82.5 -38t-57.5 -85l-383 -907q-57 -136 -136 -210.5t-195 -74.5q-100 0 -144.5 41.5t-44.5 98.5zM547 1073l217 428q12 4 24 4q36 0 59 -24t23 -62q0 -46 -34.5 -104.5t-84 -109t-99.5 -90.5t-87 -60z" />
<glyph unicode="&#xfe;" horiz-adv-x="1155" d="M53 1442q84 8 169 31.5t128 42.5l43 20v-709q26 8 62 30.5t66.5 43t80.5 37t105 16.5q180 0 281.5 -125.5t101.5 -330.5q0 -104 -35 -198t-103 -169t-179 -119.5t-251 -44.5q-35 0 -67 2.5t-47 4.5l-15 3v-305q0 -70 16 -93t62 -28l96 -10v-53h-510v55l52 8q47 8 77.5 45 t30.5 93v1583q0 69 -33 97t-121 28zM393 201q0 -71 42.5 -115.5t135.5 -44.5q140 0 238 108t98 293q0 77 -17 146t-51.5 126.5t-94.5 91.5t-138 34q-46 0 -120.5 -34.5t-92.5 -37.5v-567z" />
<glyph unicode="&#xff;" horiz-adv-x="1060" d="M-37 -315q0 37 29 65.5t82 28.5q24 0 32 -4q-4 -12 -4 -23q0 -80 93 -80q150 0 223 185l51 127l-264 747q-23 67 -51 93.5t-70 33.5l-55 8v56q155 -7 247 -7l207 7v-56l-51 -8q-61 -9 -61 -47q0 -15 4 -29l182 -589l225 577q11 33 11 39q0 40 -54 49l-55 8v56 q86 -7 195 -7q40 0 79.5 1.5t58.5 3.5l19 2v-56l-30 -6q-49 -10 -82.5 -38t-57.5 -85l-383 -907q-57 -136 -136 -210.5t-195 -74.5q-100 0 -144.5 41.5t-44.5 98.5zM295 1247q0 43 32 75t76 32q43 0 75 -32t32 -75t-32 -75.5t-75 -32.5q-44 0 -76 32.5t-32 75.5zM674 1247 q0 43 31.5 75t74.5 32q44 0 76.5 -32t32.5 -75t-32.5 -75.5t-76.5 -32.5q-43 0 -74.5 32.5t-31.5 75.5z" />
<glyph unicode="&#x100;" horiz-adv-x="1486" d="M31 0v59l53 11q62 11 97 54.5t67 131.5l436 1198l80 12l479 -1269q44 -113 143 -127l70 -11v-59q-120 8 -278 8q-86 0 -160.5 -2t-106.5 -4l-32 -2v59l53 11q58 10 81 31.5t23 60.5q0 34 -26 104l-99 271h-462l-107 -320q-12 -37 -12 -65q0 -37 23.5 -55t88.5 -27l78 -11 v-59q-131 6 -289 6q-54 0 -104 -1.5t-73 -2.5zM455 1663v113q151 -7 284 -7q64 0 135.5 1.5t110.5 3.5l39 2v-113q-135 6 -285 6zM475 621h406l-201 577z" />
<glyph unicode="&#x101;" horiz-adv-x="960" d="M68 176q0 66 32 118.5t83 85.5t121 54.5t140 30t146 8.5q6 137 6 205q0 90 -37.5 140t-128.5 50q-68 0 -102.5 -30.5t-34.5 -73.5q0 -46 26 -76q-42 -31 -98 -31q-50 0 -79 25.5t-29 69.5q0 82 109.5 142t252.5 60q291 0 291 -313q0 -63 -5 -193.5t-5 -199.5 q0 -86 19 -127t77 -41q23 0 44 5t30 10l10 5l18 -34q-2 -4 -7 -10.5t-22 -24t-36 -30.5t-50.5 -23.5t-64.5 -10.5q-67 0 -108.5 35.5t-55.5 85.5q-26 -6 -60.5 -26.5t-63 -41t-78 -37t-105.5 -16.5q-111 0 -173 54.5t-62 154.5zM201 1204v113q145 -6 278 -6l279 6v-113 q-129 6 -279 6zM248 199q0 -64 36.5 -96.5t92.5 -32.5q57 0 126 28.5t93 34.5q-10 57 -10 133l2 142q-147 0 -243.5 -54t-96.5 -155z" />
<glyph unicode="&#x102;" horiz-adv-x="1486" d="M31 0v59l53 11q62 11 97 54.5t67 131.5l436 1198l80 12l479 -1269q44 -113 143 -127l70 -11v-59q-120 8 -278 8q-86 0 -160.5 -2t-106.5 -4l-32 -2v59l53 11q58 10 81 31.5t23 60.5q0 34 -26 104l-99 271h-462l-107 -320q-12 -37 -12 -65q0 -37 23.5 -55t88.5 -27l78 -11 v-59q-131 6 -289 6q-54 0 -104 -1.5t-73 -2.5zM430 1870h139q0 -95 47 -149t136 -54q94 0 149 54.5t55 148.5h58q0 -149 -75.5 -233.5t-211.5 -84.5q-137 0 -217 84t-80 234zM475 621h406l-201 577z" />
<glyph unicode="&#x103;" horiz-adv-x="960" d="M68 176q0 66 32 118.5t83 85.5t121 54.5t140 30t146 8.5q6 137 6 205q0 90 -37.5 140t-128.5 50q-68 0 -102.5 -30.5t-34.5 -73.5q0 -46 26 -76q-42 -31 -98 -31q-50 0 -79 25.5t-29 69.5q0 82 109.5 142t252.5 60q291 0 291 -313q0 -63 -5 -193.5t-5 -199.5 q0 -86 19 -127t77 -41q23 0 44 5t30 10l10 5l18 -34q-2 -4 -7 -10.5t-22 -24t-36 -30.5t-50.5 -23.5t-64.5 -10.5q-67 0 -108.5 35.5t-55.5 85.5q-26 -6 -60.5 -26.5t-63 -41t-78 -37t-105.5 -16.5q-111 0 -173 54.5t-62 154.5zM188 1430h140q0 -96 46.5 -149.5t135.5 -53.5 q94 0 149.5 54.5t55.5 148.5h57q0 -149 -75.5 -233.5t-211.5 -84.5q-137 0 -217 84t-80 234zM248 199q0 -64 36.5 -96.5t92.5 -32.5q57 0 126 28.5t93 34.5q-10 57 -10 133l2 142q-147 0 -243.5 -54t-96.5 -155z" />
<glyph unicode="&#x104;" horiz-adv-x="1486" d="M31 0v59l53 11q62 11 97 54.5t67 131.5l436 1198l80 12l479 -1269q44 -113 143 -127l70 -11v-59q-63 -17 -114 -52t-80.5 -75t-45.5 -80t-16 -74q0 -58 33.5 -89t97.5 -31q33 0 59 12.5t37 26.5q12 -4 20.5 -16.5t8.5 -24.5q0 -36 -47.5 -70.5t-142.5 -34.5 q-46 0 -86 9.5t-73.5 30t-53 57.5t-19.5 87q0 52 23 101.5t56 84.5t75.5 66.5t74 49t58.5 28.5q-20 0 -67.5 1t-75.5 1q-86 0 -160.5 -2t-106.5 -4l-32 -2v59l53 11q58 10 81 31.5t23 60.5q0 34 -26 104l-99 271h-462l-107 -320q-12 -37 -12 -65q0 -37 23.5 -55t88.5 -27 l78 -11v-59q-131 6 -289 6q-54 0 -104 -1.5t-73 -2.5zM475 621h406l-201 577z" />
<glyph unicode="&#x105;" horiz-adv-x="960" d="M68 176q0 66 32 118.5t83 85.5t121 54.5t140 30t146 8.5q6 137 6 205q0 90 -37.5 140t-128.5 50q-68 0 -102.5 -30.5t-34.5 -73.5q0 -46 26 -76q-42 -31 -98 -31q-50 0 -79 25.5t-29 69.5q0 82 109.5 142t252.5 60q291 0 291 -313q0 -63 -5 -193.5t-5 -199.5 q0 -86 19 -127t77 -41q23 0 44 5t30 10l10 5l18 -34q-123 -98 -189.5 -189.5t-66.5 -157.5q0 -58 33.5 -89t97.5 -31q33 0 59.5 12.5t37.5 26.5q12 -4 20 -16.5t8 -24.5q0 -36 -47.5 -70.5t-142.5 -34.5q-46 0 -86 9.5t-73.5 30t-53 57.5t-19.5 87q0 160 222 293 q-59 4 -95.5 38.5t-48.5 80.5q-26 -6 -60.5 -26.5t-63 -41t-78 -37t-105.5 -16.5q-111 0 -173 54.5t-62 154.5zM248 199q0 -64 36.5 -96.5t92.5 -32.5q57 0 126 28.5t93 34.5q-10 57 -10 133l2 142q-147 0 -243.5 -54t-96.5 -155z" />
<glyph unicode="&#x106;" horiz-adv-x="1478" d="M80 682q0 154 52.5 293.5t148.5 248.5t246.5 173.5t332.5 64.5q98 0 263 -27.5t225 -27.5v-330h-60q-28 140 -150 222.5t-317 82.5q-155 0 -276 -84.5t-185.5 -229.5t-64.5 -325q0 -134 32 -247.5t88.5 -195t133 -138.5t166 -85t186.5 -28q169 0 276.5 85.5t137.5 225.5 l59 -4l-37 -311q-58 0 -136.5 -19.5t-172 -39t-188.5 -19.5q-126 0 -237.5 25t-208 80.5t-166 138t-109 202.5t-39.5 269zM793 1587l153 311q15 5 25 5q33 0 54.5 -24t21.5 -62q0 -50 -44 -105.5t-96.5 -91.5t-95.5 -51z" />
<glyph unicode="&#x107;" horiz-adv-x="925" d="M66 438q0 100 35.5 192t100 164.5t164 116t218.5 43.5q72 0 135.5 -17.5t107 -56.5t43.5 -92q0 -44 -40.5 -72t-90.5 -28q-30 0 -57 12q8 21 8 48q0 46 -42.5 80t-143.5 34q-114 0 -186 -96.5t-72 -286.5q0 -73 21.5 -140t62.5 -121.5t110.5 -87t157.5 -32.5 q137 0 233 47l21 -39q-14 -17 -37.5 -36.5t-65.5 -44.5t-106 -41.5t-137 -16.5q-51 0 -106 13.5t-116 48t-108.5 85.5t-78.5 135.5t-31 188.5zM446 1073l218 428q12 4 24 4q36 0 59 -24t23 -62q0 -46 -34.5 -104.5t-84 -109t-99.5 -90.5t-87 -60z" />
<glyph unicode="&#x108;" horiz-adv-x="1478" d="M80 682q0 154 52.5 293.5t148.5 248.5t246.5 173.5t332.5 64.5q98 0 263 -27.5t225 -27.5v-330h-60q-28 140 -150 222.5t-317 82.5q-155 0 -276 -84.5t-185.5 -229.5t-64.5 -325q0 -134 32 -247.5t88.5 -195t133 -138.5t166 -85t186.5 -28q169 0 276.5 85.5t137.5 225.5 l59 -4l-37 -311q-58 0 -136.5 -19.5t-172 -39t-188.5 -19.5q-126 0 -237.5 25t-208 80.5t-166 138t-109 202.5t-39.5 269zM532 1610l328 268l330 -279q-2 -21 -25 -39t-63 -18q-45 0 -86 24t-71 62.5t-50.5 77t-34.5 78.5l-215 -246z" />
<glyph unicode="&#x109;" horiz-adv-x="925" d="M66 438q0 100 35.5 192t100 164.5t164 116t218.5 43.5q72 0 135.5 -17.5t107 -56.5t43.5 -92q0 -44 -40.5 -72t-90.5 -28q-30 0 -57 12q8 21 8 48q0 46 -42.5 80t-143.5 34q-114 0 -186 -96.5t-72 -286.5q0 -73 21.5 -140t62.5 -121.5t110.5 -87t157.5 -32.5 q137 0 233 47l21 -39q-14 -17 -37.5 -36.5t-65.5 -44.5t-106 -41.5t-137 -16.5q-51 0 -106 13.5t-116 48t-108.5 85.5t-78.5 135.5t-31 188.5zM236 1130l329 369l330 -360q-2 -20 -24 -39t-56 -19q-44 0 -87 35.5t-76 93t-54 103t-37 92.5l-199 -324z" />
<glyph unicode="&#x10a;" horiz-adv-x="1478" d="M80 682q0 154 52.5 293.5t148.5 248.5t246.5 173.5t332.5 64.5q98 0 263 -27.5t225 -27.5v-330h-60q-28 140 -150 222.5t-317 82.5q-155 0 -276 -84.5t-185.5 -229.5t-64.5 -325q0 -134 32 -247.5t88.5 -195t133 -138.5t166 -85t186.5 -28q169 0 276.5 85.5t137.5 225.5 l59 -4l-37 -311q-58 0 -136.5 -19.5t-172 -39t-188.5 -19.5q-126 0 -237.5 25t-208 80.5t-166 138t-109 202.5t-39.5 269zM721 1739q0 53 37.5 90t91.5 37q53 0 91 -37.5t38 -89.5q0 -55 -38 -93t-91 -38q-54 0 -91.5 38t-37.5 93z" />
<glyph unicode="&#x10b;" horiz-adv-x="925" d="M66 438q0 100 35.5 192t100 164.5t164 116t218.5 43.5q72 0 135.5 -17.5t107 -56.5t43.5 -92q0 -44 -40.5 -72t-90.5 -28q-30 0 -57 12q8 21 8 48q0 46 -42.5 80t-143.5 34q-114 0 -186 -96.5t-72 -286.5q0 -73 21.5 -140t62.5 -121.5t110.5 -87t157.5 -32.5 q137 0 233 47l21 -39q-14 -17 -37.5 -36.5t-65.5 -44.5t-106 -41.5t-137 -16.5q-51 0 -106 13.5t-116 48t-108.5 85.5t-78.5 135.5t-31 188.5zM453 1341q0 51 34 86t84 35q51 0 86 -35t35 -86q0 -50 -35 -84t-86 -34q-49 0 -83.5 34.5t-34.5 83.5z" />
<glyph unicode="&#x10c;" horiz-adv-x="1478" d="M80 682q0 154 52.5 293.5t148.5 248.5t246.5 173.5t332.5 64.5q98 0 263 -27.5t225 -27.5v-330h-60q-28 140 -150 222.5t-317 82.5q-155 0 -276 -84.5t-185.5 -229.5t-64.5 -325q0 -134 32 -247.5t88.5 -195t133 -138.5t166 -85t186.5 -28q169 0 276.5 85.5t137.5 225.5 l59 -4l-37 -311q-58 0 -136.5 -19.5t-172 -39t-188.5 -19.5q-126 0 -237.5 25t-208 80.5t-166 138t-109 202.5t-39.5 269zM559 1806l113 72l215 -246q14 40 34.5 78.5t50 77t70.5 62.5t86 24q40 0 63.5 -18t25.5 -39l-330 -279z" />
<glyph unicode="&#x10d;" horiz-adv-x="925" d="M66 438q0 100 35.5 192t100 164.5t164 116t218.5 43.5q72 0 135.5 -17.5t107 -56.5t43.5 -92q0 -44 -40.5 -72t-90.5 -28q-30 0 -57 12q8 21 8 48q0 46 -42.5 80t-143.5 34q-114 0 -186 -96.5t-72 -286.5q0 -73 21.5 -140t62.5 -121.5t110.5 -87t157.5 -32.5 q137 0 233 47l21 -39q-14 -17 -37.5 -36.5t-65.5 -44.5t-106 -41.5t-137 -16.5q-51 0 -106 13.5t-116 48t-108.5 85.5t-78.5 135.5t-31 188.5zM231 1450l127 49l199 -323q16 46 37 92t54 103t76 92.5t87 35.5q34 0 56 -18.5t24 -38.5l-330 -361z" />
<glyph unicode="&#x10e;" horiz-adv-x="1593" d="M102 0v59l54 11q133 24 133 200v961q0 68 -26.5 96t-92.5 37l-68 10v60q158 -7 289 -7q68 0 172 3.5t168 3.5q160 0 290.5 -35t221 -96.5t152 -148t90 -187.5t28.5 -217q0 -157 -52.5 -292t-153 -238t-257.5 -161.5t-354 -58.5q-53 0 -140.5 3t-172.5 3zM469 1806l113 72 l215 -246q14 40 34.5 78.5t50 77t70.5 62.5t86 24q40 0 63 -18t25 -39l-329 -279zM485 203q0 -64 43.5 -98.5t114.5 -34.5q80 0 146.5 6.5t135.5 24t122.5 47t102 77t80 111t50 153t18.5 199.5q0 139 -45 261.5t-127 215t-207.5 146t-277.5 53.5q-102 0 -156 -14v-1147z" />
<glyph unicode="&#x10f;" horiz-adv-x="1234" d="M66 424q0 83 21.5 159.5t67 144.5t111.5 118t161 79t208 29q35 0 66.5 -2.5t46.5 -5.5l14 -2v328q0 69 -33 97t-121 28l-10 45q84 8 169 31.5t128 42.5l43 20v-1307q0 -69 33 -96t121 -27l12 -45q-76 -6 -158 -29.5t-126 -43.5l-44 -21l-14 127q-26 -8 -62 -30.5t-66 -43 t-79.5 -37t-103.5 -16.5q-180 0 -282.5 125.5t-102.5 331.5zM248 479q0 -77 17 -145.5t51.5 -126t94.5 -91.5t138 -34q47 0 122.5 33.5t90.5 36.5v569q0 71 -42 114.5t-136 43.5q-140 0 -238 -107.5t-98 -292.5zM1038 1440q0 44 24 70t60 26q46 0 72.5 -38.5t26.5 -100.5 q0 -67 -38 -151.5t-98 -153.5l-30 18q35 81 34 166.5t-51 163.5z" />
<glyph unicode="&#x110;" horiz-adv-x="1593" d="M51 655v115q125 -2 236 -4v465q0 68 -26.5 96t-92.5 37l-68 10v60q158 -7 289 -7q68 0 172 3.5t168 3.5q160 0 290.5 -35t221 -96.5t152 -148t90 -187.5t28.5 -217q0 -157 -52.5 -292t-153 -238t-257.5 -161.5t-354 -58.5q-53 0 -140.5 3t-172.5 3l-281 -6v59l54 11 q133 24 133 200v389zM483 203q0 -64 43.5 -98.5t114.5 -34.5q80 0 146.5 6.5t135.5 24t122.5 47t102 77t80 111t50 153t18.5 199.5q0 139 -45 261.5t-127 215t-207.5 146t-277.5 53.5q-102 0 -156 -14v-586q289 6 369 6v-115l-369 4v-456z" />
<glyph unicode="&#x111;" horiz-adv-x="1132" d="M66 424q0 83 21.5 159.5t67 144.5t111.5 118t161 79t208 29q35 0 66.5 -2.5t46.5 -5.5l14 -2v193l-397 -7v93q262 -6 397 -6v55q0 69 -33 97t-121 28l-10 45q84 8 169 31.5t128 42.5l43 20v-317l158 4v-93q-72 3 -158 5v-906q0 -69 33 -96t121 -27l12 -45 q-76 -6 -158 -29.5t-126 -43.5l-44 -21l-14 127q-26 -8 -62 -30.5t-66 -43t-79.5 -37t-103.5 -16.5q-180 0 -282.5 125.5t-102.5 331.5zM248 479q0 -77 17 -145.5t51.5 -126t94.5 -91.5t138 -34q47 0 122.5 33.5t90.5 36.5v569q0 71 -42 114.5t-136 43.5q-140 0 -238 -107.5 t-98 -292.5z" />
<glyph unicode="&#x112;" horiz-adv-x="1171" d="M100 0v59l54 11q133 24 133 200v961q0 68 -26.5 96t-92.5 37l-68 10v60q193 -7 289 -7q150 0 311 1.5t246 3.5l86 2v-336h-49q-22 121 -113.5 193.5t-259.5 72.5q-73 0 -127 -14v-576h146q89 0 130 40t54 116l14 82h52q-7 -151 -7 -260q0 -51 2 -108t4 -88l1 -32h-52 l-8 47q-19 123 -172 123h-164v-491q0 -64 43.5 -98.5t114.5 -34.5q75 0 136.5 19t103.5 47.5t76.5 72.5t55.5 84.5t40 91.5l49 -6l-64 -379q-462 6 -657 6zM358 1663v113q152 -7 285 -7q64 0 135.5 1.5t110.5 3.5l39 2v-113q-135 6 -285 6z" />
<glyph unicode="&#x113;" horiz-adv-x="946" d="M66 438q0 133 59 249.5t174 191.5t262 75q159 0 240.5 -87t81.5 -249l-33 -28h-600q-4 -33 -4 -90q0 -191 90.5 -295.5t251.5 -104.5q143 0 258 62l16 -39q-139 -156 -360 -156q-106 0 -190.5 36.5t-137.5 101t-80.5 149.5t-27.5 184zM258 647l444 25q3 14 3 30 q0 92 -49.5 136.5t-137.5 44.5q-93 0 -165.5 -65.5t-94.5 -170.5zM303 1204v113q146 -6 279 -6l278 6v-113q-128 6 -278 6z" />
<glyph unicode="&#x114;" horiz-adv-x="1171" d="M100 0v59l54 11q133 24 133 200v961q0 68 -26.5 96t-92.5 37l-68 10v60q193 -7 289 -7q150 0 311 1.5t246 3.5l86 2v-336h-49q-22 121 -113.5 193.5t-259.5 72.5q-73 0 -127 -14v-576h146q89 0 130 40t54 116l14 82h52q-7 -151 -7 -260q0 -51 2 -108t4 -88l1 -32h-52 l-8 47q-19 123 -172 123h-164v-491q0 -64 43.5 -98.5t114.5 -34.5q75 0 136.5 19t103.5 47.5t76.5 72.5t55.5 84.5t40 91.5l49 -6l-64 -379q-462 6 -657 6zM354 1870h140q0 -96 46.5 -149.5t135.5 -53.5q94 0 149.5 54.5t55.5 148.5h57q0 -149 -75.5 -233.5t-211.5 -84.5 q-137 0 -217 84t-80 234z" />
<glyph unicode="&#x115;" horiz-adv-x="946" d="M66 438q0 133 59 249.5t174 191.5t262 75q159 0 240.5 -87t81.5 -249l-33 -28h-600q-4 -33 -4 -90q0 -191 90.5 -295.5t251.5 -104.5q143 0 258 62l16 -39q-139 -156 -360 -156q-106 0 -190.5 36.5t-137.5 101t-80.5 149.5t-27.5 184zM258 647l444 25q3 14 3 30 q0 92 -49.5 136.5t-137.5 44.5q-93 0 -165.5 -65.5t-94.5 -170.5zM289 1430h139q0 -96 46.5 -149.5t135.5 -53.5q94 0 149.5 54.5t55.5 148.5h57q0 -149 -75 -233.5t-211 -84.5q-137 0 -217 84t-80 234z" />
<glyph unicode="&#x116;" horiz-adv-x="1171" d="M100 0v59l54 11q133 24 133 200v961q0 68 -26.5 96t-92.5 37l-68 10v60q193 -7 289 -7q150 0 311 1.5t246 3.5l86 2v-336h-49q-22 121 -113.5 193.5t-259.5 72.5q-73 0 -127 -14v-576h146q89 0 130 40t54 116l14 82h52q-7 -151 -7 -260q0 -51 2 -108t4 -88l1 -32h-52 l-8 47q-19 123 -172 123h-164v-491q0 -64 43.5 -98.5t114.5 -34.5q75 0 136.5 19t103.5 47.5t76.5 72.5t55.5 84.5t40 91.5l49 -6l-64 -379q-462 6 -657 6zM512 1739q0 53 37.5 90t91.5 37q53 0 91 -37.5t38 -89.5q0 -55 -38 -93t-91 -38q-54 0 -91.5 38t-37.5 93z" />
<glyph unicode="&#x117;" horiz-adv-x="946" d="M66 438q0 133 59 249.5t174 191.5t262 75q159 0 240.5 -87t81.5 -249l-33 -28h-600q-4 -33 -4 -90q0 -191 90.5 -295.5t251.5 -104.5q143 0 258 62l16 -39q-139 -156 -360 -156q-106 0 -190.5 36.5t-137.5 101t-80.5 149.5t-27.5 184zM258 647l444 25q3 14 3 30 q0 92 -49.5 136.5t-137.5 44.5q-93 0 -165.5 -65.5t-94.5 -170.5zM432 1341q0 51 34.5 86t84.5 35q51 0 86 -35t35 -86q0 -50 -35 -84t-86 -34q-50 0 -84.5 34.5t-34.5 83.5z" />
<glyph unicode="&#x118;" horiz-adv-x="1171" d="M100 0v59l54 11q133 24 133 200v961q0 68 -26.5 96t-92.5 37l-68 10v60q193 -7 289 -7q150 0 311 1.5t246 3.5l86 2v-336h-49q-22 121 -113.5 193.5t-259.5 72.5q-73 0 -127 -14v-576h146q89 0 130 40t54 116l14 82h52q-7 -151 -7 -260q0 -51 2 -108t4 -88l1 -32h-52 l-8 47q-19 123 -172 123h-164v-491q0 -64 43.5 -98.5t114.5 -34.5q75 0 136.5 19t103.5 47.5t76.5 72.5t55.5 84.5t40 91.5l49 -6l-64 -379q-63 -17 -114 -52t-80.5 -75t-45.5 -80t-16 -74q0 -58 33.5 -89t97.5 -31q33 0 59.5 12.5t37.5 26.5q12 -4 20 -16.5t8 -24.5 q0 -36 -47.5 -70.5t-142.5 -34.5q-46 0 -86 9.5t-73.5 30t-53 57.5t-19.5 87t21.5 98t52.5 82.5t71.5 65.5t71 48.5t60.5 31.5q-304 4 -512 4z" />
<glyph unicode="&#x119;" horiz-adv-x="946" d="M66 438q0 133 59 249.5t174 191.5t262 75q159 0 240.5 -87t81.5 -249l-33 -28h-600q-4 -33 -4 -90q0 -191 90.5 -295.5t251.5 -104.5q143 0 258 62l16 -39q-145 -169 -200.5 -255t-55.5 -149q0 -58 33.5 -89t97.5 -31q33 0 59.5 12.5t37.5 26.5q12 -4 20 -16.5t8 -24.5 q0 -36 -47.5 -70.5t-142.5 -34.5q-46 0 -86 10t-73.5 31t-53 59.5t-19.5 90.5q0 53 24.5 103t68.5 92.5t79 69t82 56.5q-88 -37 -192 -37q-106 0 -190.5 36.5t-137.5 101t-80.5 149.5t-27.5 184zM258 647l444 25q3 14 3 30q0 92 -49.5 136.5t-137.5 44.5q-93 0 -165.5 -65.5 t-94.5 -170.5z" />
<glyph unicode="&#x11a;" horiz-adv-x="1171" d="M100 0v59l54 11q133 24 133 200v961q0 68 -26.5 96t-92.5 37l-68 10v60q193 -7 289 -7q150 0 311 1.5t246 3.5l86 2v-336h-49q-22 121 -113.5 193.5t-259.5 72.5q-73 0 -127 -14v-576h146q89 0 130 40t54 116l14 82h52q-7 -151 -7 -260q0 -51 2 -108t4 -88l1 -32h-52 l-8 47q-19 123 -172 123h-164v-491q0 -64 43.5 -98.5t114.5 -34.5q75 0 136.5 19t103.5 47.5t76.5 72.5t55.5 84.5t40 91.5l49 -6l-64 -379q-462 6 -657 6zM299 1806l113 72l215 -246q14 40 34.5 78.5t50 77t70.5 62.5t86 24q40 0 63 -18t25 -39l-329 -279z" />
<glyph unicode="&#x11b;" horiz-adv-x="946" d="M66 438q0 133 59 249.5t174 191.5t262 75q159 0 240.5 -87t81.5 -249l-33 -28h-600q-4 -33 -4 -90q0 -191 90.5 -295.5t251.5 -104.5q143 0 258 62l16 -39q-139 -156 -360 -156q-106 0 -190.5 36.5t-137.5 101t-80.5 149.5t-27.5 184zM238 1450l127 49l198 -323 q16 46 37 92t54 103t76 92.5t87 35.5q34 0 56 -18.5t24 -38.5l-330 -361zM258 647l444 25q3 14 3 30q0 92 -49.5 136.5t-137.5 44.5q-93 0 -165.5 -65.5t-94.5 -170.5z" />
<glyph unicode="&#x11c;" horiz-adv-x="1583" d="M80 682q0 154 52.5 293.5t148.5 248.5t246.5 173.5t332.5 64.5q98 0 263 -27.5t225 -27.5v-330h-60q-28 140 -150 222.5t-317 82.5q-155 0 -276 -84.5t-185.5 -229.5t-64.5 -325q0 -165 49.5 -299.5t134 -219t193 -130t229.5 -45.5q138 0 203 51t65 129v187 q0 68 -26.5 96t-91.5 37l-68 10v59h539v-59l-37 -10q-62 -17 -93.5 -67t-31.5 -124v-313q-52 0 -134 -19.5t-188 -39t-217 -19.5q-149 0 -282 48t-235.5 136.5t-163 226t-60.5 304.5zM524 1610l328 268l330 -279q-2 -21 -25 -39t-63 -18q-45 0 -86 24t-71 62.5t-50.5 77 t-34.5 78.5l-215 -246z" />
<glyph unicode="&#x11d;" horiz-adv-x="1069" d="M47 -274q0 77 45 116t103 39q64 0 94 -45q-64 -45 -64 -115q0 -163 293 -163q57 0 113.5 11t109 33.5t85 63t32.5 92.5q0 49 -22.5 81.5t-69 49.5t-105 24t-143.5 7q-59 0 -104 2.5t-90.5 9t-77 18.5t-57 31t-38 47.5t-12.5 65.5q0 44 19.5 79t52 56t65 33.5t66.5 18.5 q-114 31 -183 112t-69 205q0 67 28.5 130.5t79.5 114t129.5 81t172.5 30.5q65 0 114 -12.5t105 -44.5q74 -12 112 -12q116 0 187 41q29 -23 29 -62q0 -34 -28 -60t-81 -26q-31 0 -57.5 11t-51.5 26.5t-41 20.5q74 -90 74 -205q0 -61 -21.5 -120t-63.5 -111t-114 -87 t-163 -41q-47 -9 -75 -16.5t-61.5 -21t-50 -32t-16.5 -42.5q0 -44 57.5 -60t192.5 -16q229 0 341.5 -59t112.5 -203q0 -103 -76.5 -182t-205.5 -120.5t-289 -41.5q-98 0 -182 25t-142.5 83t-58.5 140zM205 1130l330 369l329 -360q-2 -20 -24 -39t-56 -19q-44 0 -87 35.5 t-76 93t-54 103t-37 92.5l-198 -324zM262 625q0 -135 66.5 -210t160.5 -75q92 0 146.5 67.5t54.5 194.5q0 113 -62.5 198t-168.5 85q-100 0 -148.5 -70t-48.5 -190z" />
<glyph unicode="&#x11e;" horiz-adv-x="1583" d="M80 682q0 154 52.5 293.5t148.5 248.5t246.5 173.5t332.5 64.5q98 0 263 -27.5t225 -27.5v-330h-60q-28 140 -150 222.5t-317 82.5q-155 0 -276 -84.5t-185.5 -229.5t-64.5 -325q0 -165 49.5 -299.5t134 -219t193 -130t229.5 -45.5q138 0 203 51t65 129v187 q0 68 -26.5 96t-91.5 37l-68 10v59h539v-59l-37 -10q-62 -17 -93.5 -67t-31.5 -124v-313q-52 0 -134 -19.5t-188 -39t-217 -19.5q-149 0 -282 48t-235.5 136.5t-163 226t-60.5 304.5zM563 1870h139q0 -95 47 -149t136 -54q94 0 149.5 54.5t55.5 148.5h57 q0 -149 -75.5 -233.5t-211.5 -84.5q-137 0 -217 84t-80 234z" />
<glyph unicode="&#x11f;" horiz-adv-x="1069" d="M47 -274q0 77 45 116t103 39q64 0 94 -45q-64 -45 -64 -115q0 -163 293 -163q57 0 113.5 11t109 33.5t85 63t32.5 92.5q0 49 -22.5 81.5t-69 49.5t-105 24t-143.5 7q-59 0 -104 2.5t-90.5 9t-77 18.5t-57 31t-38 47.5t-12.5 65.5q0 44 19.5 79t52 56t65 33.5t66.5 18.5 q-114 31 -183 112t-69 205q0 67 28.5 130.5t79.5 114t129.5 81t172.5 30.5q65 0 114 -12.5t105 -44.5q74 -12 112 -12q116 0 187 41q29 -23 29 -62q0 -34 -28 -60t-81 -26q-31 0 -57.5 11t-51.5 26.5t-41 20.5q74 -90 74 -205q0 -61 -21.5 -120t-63.5 -111t-114 -87 t-163 -41q-47 -9 -75 -16.5t-61.5 -21t-50 -32t-16.5 -42.5q0 -44 57.5 -60t192.5 -16q229 0 341.5 -59t112.5 -203q0 -103 -76.5 -182t-205.5 -120.5t-289 -41.5q-98 0 -182 25t-142.5 83t-58.5 140zM262 625q0 -135 66.5 -210t160.5 -75q92 0 146.5 67.5t54.5 194.5 q0 113 -62.5 198t-168.5 85q-100 0 -148.5 -70t-48.5 -190zM268 1430h140q0 -96 46.5 -149.5t135.5 -53.5q94 0 149.5 54.5t55.5 148.5h57q0 -149 -75.5 -233.5t-211.5 -84.5q-137 0 -217 84t-80 234z" />
<glyph unicode="&#x120;" horiz-adv-x="1583" d="M80 682q0 154 52.5 293.5t148.5 248.5t246.5 173.5t332.5 64.5q98 0 263 -27.5t225 -27.5v-330h-60q-28 140 -150 222.5t-317 82.5q-155 0 -276 -84.5t-185.5 -229.5t-64.5 -325q0 -165 49.5 -299.5t134 -219t193 -130t229.5 -45.5q138 0 203 51t65 129v187 q0 68 -26.5 96t-91.5 37l-68 10v59h539v-59l-37 -10q-62 -17 -93.5 -67t-31.5 -124v-313q-52 0 -134 -19.5t-188 -39t-217 -19.5q-149 0 -282 48t-235.5 136.5t-163 226t-60.5 304.5zM721 1739q0 53 37.5 90t91.5 37q53 0 91 -37.5t38 -89.5q0 -55 -38 -93t-91 -38 q-54 0 -91.5 38t-37.5 93z" />
<glyph unicode="&#x121;" horiz-adv-x="1069" d="M47 -274q0 77 45 116t103 39q64 0 94 -45q-64 -45 -64 -115q0 -163 293 -163q57 0 113.5 11t109 33.5t85 63t32.5 92.5q0 49 -22.5 81.5t-69 49.5t-105 24t-143.5 7q-59 0 -104 2.5t-90.5 9t-77 18.5t-57 31t-38 47.5t-12.5 65.5q0 44 19.5 79t52 56t65 33.5t66.5 18.5 q-114 31 -183 112t-69 205q0 67 28.5 130.5t79.5 114t129.5 81t172.5 30.5q65 0 114 -12.5t105 -44.5q74 -12 112 -12q116 0 187 41q29 -23 29 -62q0 -34 -28 -60t-81 -26q-31 0 -57.5 11t-51.5 26.5t-41 20.5q74 -90 74 -205q0 -61 -21.5 -120t-63.5 -111t-114 -87 t-163 -41q-47 -9 -75 -16.5t-61.5 -21t-50 -32t-16.5 -42.5q0 -44 57.5 -60t192.5 -16q229 0 341.5 -59t112.5 -203q0 -103 -76.5 -182t-205.5 -120.5t-289 -41.5q-98 0 -182 25t-142.5 83t-58.5 140zM262 625q0 -135 66.5 -210t160.5 -75q92 0 146.5 67.5t54.5 194.5 q0 113 -62.5 198t-168.5 85q-100 0 -148.5 -70t-48.5 -190zM416 1341q0 51 34.5 86t84.5 35q51 0 85.5 -35t34.5 -86q0 -50 -34.5 -84t-85.5 -34q-50 0 -84.5 34.5t-34.5 83.5z" />
<glyph unicode="&#x122;" horiz-adv-x="1583" d="M80 682q0 154 52.5 293.5t148.5 248.5t246.5 173.5t332.5 64.5q98 0 263 -27.5t225 -27.5v-330h-60q-28 140 -150 222.5t-317 82.5q-155 0 -276 -84.5t-185.5 -229.5t-64.5 -325q0 -165 49.5 -299.5t134 -219t193 -130t229.5 -45.5q138 0 203 51t65 129v187 q0 68 -26.5 96t-91.5 37l-68 10v59h539v-59l-37 -10q-62 -17 -93.5 -67t-31.5 -124v-313q-52 0 -134 -19.5t-188 -39t-217 -19.5q-149 0 -282 48t-235.5 136.5t-163 226t-60.5 304.5zM649 -537q67 18 108 58t48 82.5t-17.5 83t-78.5 61.5q0 55 34.5 90t92.5 35 q60 0 101.5 -44t41.5 -116q0 -61 -27 -111t-74 -84t-100 -56t-116 -35z" />
<glyph unicode="&#x123;" horiz-adv-x="1069" d="M47 -274q0 77 45 116t103 39q64 0 94 -45q-64 -45 -64 -115q0 -163 293 -163q57 0 113.5 11t109 33.5t85 63t32.5 92.5q0 49 -22.5 81.5t-69 49.5t-105 24t-143.5 7q-59 0 -104 2.5t-90.5 9t-77 18.5t-57 31t-38 47.5t-12.5 65.5q0 44 19.5 79t52 56t65 33.5t66.5 18.5 q-114 31 -183 112t-69 205q0 67 28.5 130.5t79.5 114t129.5 81t172.5 30.5q65 0 114 -12.5t105 -44.5q74 -12 112 -12q116 0 187 41q29 -23 29 -62q0 -34 -28 -60t-81 -26q-31 0 -57.5 11t-51.5 26.5t-41 20.5q74 -90 74 -205q0 -61 -21.5 -120t-63.5 -111t-114 -87 t-163 -41q-47 -9 -75 -16.5t-61.5 -21t-50 -32t-16.5 -42.5q0 -44 57.5 -60t192.5 -16q229 0 341.5 -59t112.5 -203q0 -103 -76.5 -182t-205.5 -120.5t-289 -41.5q-98 0 -182 25t-142.5 83t-58.5 140zM262 625q0 -135 66.5 -210t160.5 -75q92 0 146.5 67.5t54.5 194.5 q0 113 -62.5 198t-168.5 85q-100 0 -148.5 -70t-48.5 -190zM426 1237q0 61 27 111.5t74 84t100 56t116 35.5l13 -37q-67 -18 -108 -58t-48 -82.5t17.5 -83t78.5 -61.5q0 -55 -34.5 -90t-92.5 -35q-60 0 -101.5 44t-41.5 116z" />
<glyph unicode="&#x124;" horiz-adv-x="1738" d="M100 0v59l54 11q133 24 133 200v961q0 68 -26.5 96t-92.5 37l-68 10v60q129 -7 289 -7q64 0 136.5 1.5t113.5 3.5l41 2v-60l-51 -10q-67 -12 -106.5 -63.5t-39.5 -137.5v-381h772v449q0 68 -26.5 96t-91.5 37l-68 10v60q129 -7 289 -7q64 0 136.5 1.5t113.5 3.5l41 2v-60 l-52 -10q-67 -12 -106 -63.5t-39 -137.5v-960q0 -68 27.5 -96.5t91.5 -36.5l78 -11v-59q-139 6 -299 6l-281 -6v59l53 11q133 24 133 200v428h-772v-495q0 -68 27.5 -96.5t91.5 -36.5l78 -11v-59q-139 6 -299 6zM561 1610l328 268l330 -279q-2 -21 -25.5 -39t-63.5 -18 q-45 0 -86 24t-70.5 62.5t-50 77t-34.5 78.5l-215 -246z" />
<glyph unicode="&#x125;" horiz-adv-x="1165" d="M31 0v55l57 8q47 6 78 43.5t31 94.5v1071q0 69 -33 97t-121 28l-12 45q84 8 169.5 31.5t129.5 42.5l43 20v-733q14 4 53 29.5t80 51.5t101 48t116 22q131 0 199.5 -75t68.5 -195v-500q0 -71 15 -93t65 -28l66 -8v-55q-138 6 -226 6l-245 -6v55l41 8q49 9 78.5 45t29.5 93 v461q0 167 -160 167q-63 0 -160.5 -40t-121.5 -44v-561q0 -72 15 -94t65 -27l65 -8v-55q-141 6 -233 6zM336 1692l328 268l329 -279q-2 -21 -25 -39t-63 -18q-45 0 -86 24t-70.5 62.5t-50 77t-34.5 78.5l-215 -246z" />
<glyph unicode="&#x126;" horiz-adv-x="1738" d="M100 0v59l54 11q133 24 133 200v725l-185 -2v94q79 -2 185 -2v146q0 68 -26.5 96t-92.5 37l-68 10v60q129 -7 289 -7q64 0 136.5 1.5t113.5 3.5l41 2v-60l-51 -10q-67 -12 -106.5 -63.5t-39.5 -137.5v-80q154 -2 371 -2q235 0 401 2v148q0 68 -26.5 96t-91.5 37l-68 10 v60q129 -7 289 -7q64 0 136.5 1.5t113.5 3.5l41 2v-60l-52 -10q-67 -12 -106 -63.5t-39 -137.5v-78l195 2v-94q-82 0 -195 2v-792q0 -68 27.5 -96.5t91.5 -36.5l78 -11v-59q-139 6 -299 6l-281 -6v59l53 11q133 24 133 200v428h-772v-495q0 -68 27.5 -96.5t91.5 -36.5 l78 -11v-59q-139 6 -299 6zM483 782h772v215q-95 0 -237 1t-164 1q-17 0 -149 -1t-222 -1v-215z" />
<glyph unicode="&#x127;" horiz-adv-x="1165" d="M10 1130v93q91 -4 187 -6v55q0 69 -33 97t-121 28l-12 45q84 8 169.5 31.5t129.5 42.5l43 20v-319l411 6v-93q-257 5 -411 7v-334q14 4 53 29.5t80 51.5t101 48t116 22q131 0 199.5 -75t68.5 -195v-500q0 -71 15 -93t65 -28l66 -8v-55q-138 6 -226 6l-245 -6v55l41 8 q49 9 78.5 45t29.5 93v461q0 167 -160 167q-63 0 -160.5 -40t-121.5 -44v-561q0 -72 15 -94t65 -27l65 -8v-55q-141 6 -233 6l-254 -6v55l57 8q47 6 78 43.5t31 94.5v934z" />
<glyph unicode="&#x128;" d="M70 1626q14 87 65 141t133 54q42 0 81.5 -15.5t66 -34t63 -34t72.5 -15.5q106 0 141 105l31 -33q-14 -90 -66 -142.5t-141 -52.5q-40 0 -78.5 15.5t-63.5 34t-60.5 34t-71.5 15.5q-107 0 -142 -105zM100 0v59l54 11q133 24 133 200v961q0 68 -26.5 96t-92.5 37l-68 10v60 q129 -7 289 -7q64 0 134 1.5t109 3.5l38 2v-60l-41 -10q-67 -16 -106.5 -66t-39.5 -135v-960q0 -68 27 -96t92 -37l68 -11v-59q-129 6 -289 6z" />
<glyph unicode="&#x129;" horiz-adv-x="630" d="M-10 1192q14 87 65 140.5t133 53.5q53 0 100.5 -24.5t92.5 -49t90 -24.5q106 0 141 105l31 -33q-14 -90 -66 -142.5t-141 -52.5q-40 0 -78.5 15.5t-63.5 34t-60.5 34t-71.5 15.5q-107 0 -142 -105zM74 0v55l55 8q47 6 78 43.5t31 94.5v489q0 67 -33 95t-121 28l-10 45 q84 8 169 31.5t128 42.5l43 20v-768q0 -70 15.5 -92.5t64.5 -28.5l65 -8v-55q-141 6 -231 6z" />
<glyph unicode="&#x12a;" d="M100 0v59l54 11q133 24 133 200v961q0 68 -26.5 96t-92.5 37l-68 10v60q129 -7 289 -7q64 0 134 1.5t109 3.5l38 2v-60l-41 -10q-67 -16 -106.5 -66t-39.5 -135v-960q0 -68 27 -96t92 -37l68 -11v-59q-129 6 -289 6zM102 1663v113q152 -7 285 -7q64 0 135.5 1.5 t110.5 3.5l39 2v-113q-135 6 -285 6z" />
<glyph unicode="&#x12b;" horiz-adv-x="630" d="M37 1204v113q145 -6 278 -6l279 6v-113q-129 6 -279 6zM74 0v55l55 8q47 6 78 43.5t31 94.5v489q0 67 -33 95t-121 28l-10 45q84 8 169 31.5t128 42.5l43 20v-768q0 -70 15.5 -92.5t64.5 -28.5l65 -8v-55q-141 6 -231 6z" />
<glyph unicode="&#x12c;" d="M98 1870h140q0 -96 46.5 -149.5t135.5 -53.5q94 0 149.5 54.5t55.5 148.5h57q0 -149 -75.5 -233.5t-211.5 -84.5q-137 0 -217 84t-80 234zM100 0v59l54 11q133 24 133 200v961q0 68 -26.5 96t-92.5 37l-68 10v60q129 -7 289 -7q64 0 134 1.5t109 3.5l38 2v-60l-41 -10 q-67 -16 -106.5 -66t-39.5 -135v-960q0 -68 27 -96t92 -37l68 -11v-59q-129 6 -289 6z" />
<glyph unicode="&#x12d;" horiz-adv-x="630" d="M25 1430h139q0 -96 46.5 -149.5t135.5 -53.5q94 0 149.5 54.5t55.5 148.5h57q0 -149 -75 -233.5t-211 -84.5q-137 0 -217 84t-80 234zM74 0v55l55 8q47 6 78 43.5t31 94.5v489q0 67 -33 95t-121 28l-10 45q84 8 169 31.5t128 42.5l43 20v-768q0 -70 15.5 -92.5 t64.5 -28.5l65 -8v-55q-141 6 -231 6z" />
<glyph unicode="&#x12e;" d="M100 0v59l54 11q133 24 133 200v961q0 68 -26.5 96t-92.5 37l-68 10v60q129 -7 289 -7q64 0 134 1.5t109 3.5l38 2v-60l-41 -10q-67 -16 -106.5 -66t-39.5 -135v-960q0 -68 27 -96t92 -37l68 -11v-59q-63 -17 -114 -52t-80.5 -75t-45.5 -80t-16 -74q0 -58 33.5 -89 t97.5 -31q33 0 59 12.5t37 26.5q12 -4 20.5 -16.5t8.5 -24.5q0 -36 -48 -70.5t-143 -34.5q-63 0 -112.5 16t-84 59t-34.5 109q0 51 22.5 100t54.5 84.5t73 66.5t73 48.5t59 28.5q-45 2 -149 2z" />
<glyph unicode="&#x12f;" horiz-adv-x="630" d="M74 0v55l55 8q47 6 78 43.5t31 94.5v489q0 67 -33 95t-121 28l-10 45q84 8 169 31.5t128 42.5l43 20v-768q0 -70 15.5 -92.5t64.5 -28.5l65 -8v-55q-63 -17 -114 -52t-80.5 -75t-45.5 -80t-16 -74q0 -58 33.5 -89t97.5 -31q33 0 59 12.5t37 26.5q12 -4 20.5 -16.5 t8.5 -24.5q0 -36 -47.5 -70.5t-142.5 -34.5q-46 0 -86 9.5t-73.5 30t-53 57.5t-19.5 87q0 52 23 101t55 84t74 66t73.5 48.5t59.5 28.5q-35 2 -94 2zM207 1341q0 51 34.5 86t84.5 35q51 0 85.5 -35t34.5 -86q0 -50 -34.5 -84t-85.5 -34q-50 0 -84.5 34.5t-34.5 83.5z" />
<glyph unicode="&#x130;" d="M100 0v59l54 11q133 24 133 200v961q0 68 -26.5 96t-92.5 37l-68 10v60q129 -7 289 -7q64 0 134 1.5t109 3.5l38 2v-60l-41 -10q-67 -16 -106.5 -66t-39.5 -135v-960q0 -68 27 -96t92 -37l68 -11v-59q-129 6 -289 6zM274 1739q0 53 37.5 90t91.5 37q53 0 91 -37.5 t38 -89.5q0 -55 -38 -93t-91 -38q-54 0 -91.5 38t-37.5 93z" />
<glyph unicode="&#x131;" horiz-adv-x="630" d="M74 0v55l55 8q47 6 78 43.5t31 94.5v489q0 67 -33 95t-121 28l-10 45q84 8 169 31.5t128 42.5l43 20v-768q0 -70 15.5 -92.5t64.5 -28.5l65 -8v-55q-141 6 -231 6z" />
<glyph unicode="&#x132;" horiz-adv-x="1529" d="M100 0v59l54 11q133 24 133 200v961q0 68 -26.5 96t-92.5 37l-68 10v60q129 -7 289 -7q64 0 134 1.5t109 3.5l38 2v-60l-41 -10q-67 -16 -106.5 -66t-39.5 -135v-960q0 -68 27 -96t92 -37l68 -11v-59q-129 6 -289 6zM834 -420q15 23 70 73.5t81 90.5q62 92 62 281v1206 q0 68 -26.5 96t-92.5 37l-68 10v60q129 -7 289 -7q64 0 134 1.5t109 3.5l38 2v-60l-41 -10q-67 -16 -106.5 -66t-39.5 -135v-1087q0 -192 -94 -318q-38 -50 -85.5 -83.5t-105.5 -66.5t-98 -67z" />
<glyph unicode="&#x133;" horiz-adv-x="1208" d="M74 0v55l55 8q47 6 78 43.5t31 94.5v489q0 67 -33 95t-121 28l-10 45q84 8 169 31.5t128 42.5l43 20v-768q0 -70 15.5 -92.5t64.5 -28.5l65 -8v-55q-141 6 -231 6zM207 1341q0 51 34.5 86t84.5 35q51 0 85.5 -35t34.5 -86q0 -50 -34.5 -84t-85.5 -34q-50 0 -84.5 34.5 t-34.5 83.5zM584 -430q20 15 73.5 49t83 61t52.5 68q36 63 45.5 126t9.5 181v635q0 67 -33 95t-121 28l-10 45q84 8 169 31.5t128 42.5l43 20v-837q0 -162 -23 -257t-90 -163q-54 -54 -167.5 -103.5t-133.5 -62.5zM813 1341q0 51 34.5 86t84.5 35q51 0 86 -35t35 -86 q0 -50 -35 -84t-86 -34q-50 0 -84.5 34.5t-34.5 83.5z" />
<glyph unicode="&#x134;" horiz-adv-x="759" d="M63 -420q15 23 70.5 73.5t81.5 90.5q37 56 49 123.5t12 157.5v1206q0 68 -26.5 96t-91.5 37l-68 10v60q129 -7 289 -7q64 0 134 1.5t108 3.5l38 2v-60l-41 -10q-67 -16 -106 -66t-39 -135v-1087q0 -192 -94 -318q-38 -50 -85.5 -83.5t-105.5 -66.5t-98 -67zM66 1610 l327 268l330 -279q-2 -21 -25 -39t-63 -18q-45 0 -86 24t-71 62.5t-50.5 77t-34.5 78.5l-215 -246z" />
<glyph unicode="&#x135;" horiz-adv-x="577" d="M-47 -430q20 15 73.5 49t83 61t52.5 68q36 63 45.5 126t9.5 181v635q0 67 -33 95t-121 28l-10 45q84 8 169 31.5t128 42.5l43 20v-837q0 -163 -22.5 -257.5t-89.5 -162.5q-54 -54 -167.5 -103.5t-133.5 -62.5zM-27 1130l330 369l330 -360q-2 -20 -24 -39t-56 -19 q-44 0 -87 35.5t-76 93t-54 103t-37 92.5l-199 -324z" />
<glyph unicode="&#x136;" horiz-adv-x="1484" d="M100 0v59l54 11q133 24 133 200v961q0 68 -26.5 96t-92.5 37l-68 10v60q129 -7 289 -7q64 0 134 1.5t109 3.5l38 2v-60l-41 -10q-67 -16 -106.5 -66t-39.5 -135v-395h133l371 485q23 30 23 52q0 41 -78 59l-47 10v60q167 -7 284 -7l250 7v-60l-67 -8q-81 -10 -138 -46 t-112 -106l-320 -405l375 -561q60 -90 138.5 -140.5t158.5 -50.5q16 0 31.5 1.5t22.5 3.5l8 1v-43q-10 -6 -28.5 -15t-71.5 -23.5t-101 -14.5q-59 0 -109.5 13.5t-86.5 34.5t-70.5 56t-57.5 66.5t-51 77.5l-223 365q-67 112 -170 112q-37 0 -64 -10v-479q0 -68 27 -96 t92 -37l68 -11v-59q-129 6 -289 6zM668 -537q67 18 107.5 58t47.5 82.5t-17.5 83t-78.5 61.5q0 55 34.5 90t92.5 35q60 0 101.5 -44t41.5 -116q0 -61 -27 -111t-74 -84t-100 -56t-116 -35z" />
<glyph unicode="&#x137;" horiz-adv-x="1118" d="M33 0v55l55 8q47 6 78 43.5t31 94.5v1071q0 69 -33 97t-121 28l-10 45q84 8 169 31.5t128 42.5l43 20v-997h92l156 206q20 30 20 58q0 47 -82 57l-43 6v56q105 -7 279 -7q70 0 136.5 1.5t98.5 3.5l31 2v-56l-47 -4q-109 -10 -178 -37.5t-123 -93.5l-133 -168l292 -381 q53 -68 97.5 -95.5t105.5 -27.5q30 0 58 7v-46q-58 -34 -150 -34q-107 0 -183 50.5t-153 158.5l-168 237q-20 27 -43 39t-63 12v-299q0 -70 15.5 -92.5t64.5 -28.5l65 -8v-55q-108 6 -231 6q-68 0 -131.5 -1.5t-93.5 -2.5zM426 -537q67 18 107.5 58t47.5 82.5t-17.5 83 t-78.5 61.5q0 55 34.5 90t92.5 35q60 0 102 -44t42 -116q0 -61 -27 -111t-74 -84t-100.5 -56t-116.5 -35z" />
<glyph unicode="&#x138;" horiz-adv-x="1118" d="M33 0v55l55 8q47 6 78 43.5t31 94.5v487q0 69 -33 97t-121 28l-10 45q84 8 169 31.5t128 42.5l43 20v-413h92l156 206q20 30 20 58q0 47 -82 57l-43 6v56q105 -7 279 -7q70 0 136.5 1.5t98.5 3.5l31 2v-56l-47 -4q-109 -10 -178 -37.5t-123 -93.5l-133 -168l292 -381 q53 -68 97.5 -95.5t105.5 -27.5q30 0 58 7v-46q-58 -34 -150 -34q-107 0 -183 50.5t-153 158.5l-168 237q-20 27 -43 39t-63 12v-299q0 -70 15.5 -92.5t64.5 -28.5l65 -8v-55q-108 6 -231 6q-68 0 -131.5 -1.5t-93.5 -2.5z" />
<glyph unicode="&#x139;" horiz-adv-x="1159" d="M100 0v59l54 11q133 24 133 200v961q0 68 -26.5 96t-92.5 37l-68 10v60q129 -7 289 -7q64 0 134 1.5t109 3.5l38 2v-60l-41 -10q-67 -16 -106.5 -66t-39.5 -135v-960q0 -133 133 -133q99 0 174 27.5t124 80t78.5 109.5t54.5 135l49 -6l-45 -416q-103 0 -332 3t-338 3z M385 1587l154 311q15 5 24 5q33 0 54.5 -24t21.5 -62q0 -50 -44 -105.5t-96.5 -91.5t-95.5 -51z" />
<glyph unicode="&#x13a;" horiz-adv-x="546" d="M33 0v55l55 8q47 6 78 43.5t31 94.5v1071q0 69 -33 97t-121 28l-10 45q84 8 169 31.5t128 42.5l43 20v-1352q0 -70 15.5 -92.5t64.5 -28.5l65 -8v-55q-141 6 -231 6zM174 1587l154 311q15 5 24 5q33 0 54.5 -24t21.5 -62q0 -50 -43.5 -105.5t-96 -91.5t-95.5 -51z" />
<glyph unicode="&#x13b;" horiz-adv-x="1159" d="M100 0v59l54 11q133 24 133 200v961q0 68 -26.5 96t-92.5 37l-68 10v60q129 -7 289 -7q64 0 134 1.5t109 3.5l38 2v-60l-41 -10q-67 -16 -106.5 -66t-39.5 -135v-960q0 -133 133 -133q99 0 174 27.5t124 80t78.5 109.5t54.5 135l49 -6l-45 -416q-103 0 -332 3t-338 3z M414 -537q67 18 107.5 58t47.5 82.5t-17.5 83t-78.5 61.5q0 55 34.5 90t92.5 35q60 0 101.5 -44t41.5 -116q0 -61 -27 -111t-74 -84t-100 -56t-116 -35z" />
<glyph unicode="&#x13c;" horiz-adv-x="546" d="M33 0v55l55 8q47 6 78 43.5t31 94.5v1071q0 69 -33 97t-121 28l-10 45q84 8 169 31.5t128 42.5l43 20v-1352q0 -70 15.5 -92.5t64.5 -28.5l65 -8v-55q-141 6 -231 6zM109 -537q67 18 107.5 58t47.5 82.5t-17.5 83t-78.5 61.5q0 55 34.5 90t92.5 35q60 0 101.5 -44 t41.5 -116q0 -61 -27 -111t-74 -84t-100 -56t-116 -35z" />
<glyph unicode="&#x13d;" horiz-adv-x="1159" d="M100 0v59l54 11q133 24 133 200v961q0 68 -26.5 96t-92.5 37l-68 10v60q129 -7 289 -7q64 0 134 1.5t109 3.5l38 2v-60l-41 -10q-67 -16 -106.5 -66t-39.5 -135v-960q0 -133 133 -133q99 0 174 27.5t124 80t78.5 109.5t54.5 135l49 -6l-45 -416q-103 0 -332 3t-338 3z M823 1366q0 44 24 70t60 26q46 0 72.5 -38.5t26.5 -100.5q0 -67 -38 -151.5t-98 -153.5l-30 18q35 81 34 166.5t-51 163.5z" />
<glyph unicode="&#x13e;" horiz-adv-x="669" d="M33 0v55l55 8q47 6 78 43.5t31 94.5v1071q0 69 -33 97t-121 28l-10 45q84 8 169 31.5t128 42.5l43 20v-1352q0 -70 15.5 -92.5t64.5 -28.5l65 -8v-55q-141 6 -231 6zM473 1440q0 44 24 70t60 26q46 0 72 -38.5t26 -100.5q0 -67 -37.5 -151.5t-97.5 -153.5l-31 18 q35 81 34 166.5t-50 163.5z" />
<glyph unicode="&#x13f;" horiz-adv-x="1159" d="M100 0v59l54 11q133 24 133 200v961q0 68 -26.5 96t-92.5 37l-68 10v60q129 -7 289 -7q64 0 134 1.5t109 3.5l38 2v-60l-41 -10q-67 -16 -106.5 -66t-39.5 -135v-960q0 -133 133 -133q99 0 174 27.5t124 80t78.5 109.5t54.5 135l49 -6l-45 -416q-103 0 -332 3t-338 3z M793 788q0 51 35.5 87t86.5 36t87 -36t36 -87t-36 -86.5t-87 -35.5t-86.5 35.5t-35.5 86.5z" />
<glyph unicode="&#x140;" horiz-adv-x="700" d="M33 0v55l55 8q47 6 78 43.5t31 94.5v1071q0 69 -33 97t-121 28l-10 45q84 8 169 31.5t128 42.5l43 20v-1352q0 -70 15.5 -92.5t64.5 -28.5l65 -8v-55q-141 6 -231 6zM496 748q0 51 35.5 86.5t86.5 35.5t87 -35.5t36 -86.5t-36 -87t-87 -36t-86.5 36t-35.5 87z" />
<glyph unicode="&#x141;" horiz-adv-x="1159" d="M88 633q93 49 199 106v492q0 68 -26.5 96t-92.5 37l-68 10v60q129 -7 289 -7q64 0 134 1.5t109 3.5l38 2v-60l-41 -10q-67 -16 -106.5 -66t-39.5 -135v-307l326 197l55 -92q-228 -118 -381 -207v-551q0 -133 133 -133q99 0 174 27.5t124 80t78.5 109.5t54.5 135l49 -6 l-45 -416q-103 0 -332 3t-338 3l-281 -6v59l54 11q133 24 133 200v361q-36 -20 -72 -42.5t-54 -34.5l-18 -13z" />
<glyph unicode="&#x142;" horiz-adv-x="690" d="M74 676q43 18 174 88v508q0 69 -33 97t-121 28l-10 45q84 8 169 31.5t128 42.5l43 20v-674q46 25 94.5 57.5t73.5 52.5l26 19v-127q-108 -56 -194 -108v-572q0 -70 15.5 -92.5t64.5 -28.5l65 -8v-55q-141 6 -231 6l-254 -6v55l55 8q47 6 78 43.5t31 94.5v450 q-29 -16 -51.5 -29t-34 -19.5t-18.5 -11t-9 -5.5l-2 -2z" />
<glyph unicode="&#x143;" horiz-adv-x="1712" d="M80 0v59l53 11q133 24 133 200v961q0 68 -26.5 96t-92.5 37l-67 10v60q119 -7 323 -7q8 -21 24.5 -44.5t28 -37.5t42.5 -49l848 -968v903q0 69 -27 96.5t-105 36.5l-98 10v60q179 -9 281 -9q41 0 96.5 2.5t90.5 4.5l36 2v-60l-37 -10q-61 -16 -99 -66.5t-38 -134.5v-1173 l-64 -8l-1007 1140v-919q0 -70 29.5 -97t115.5 -36l98 -11v-59q-195 6 -301 6zM805 1587l153 311q15 5 25 5q33 0 54.5 -24t21.5 -62q0 -50 -44 -105.5t-96.5 -91.5t-95.5 -51z" />
<glyph unicode="&#x144;" horiz-adv-x="1167" d="M51 0v55l58 8q47 6 77.5 43.5t30.5 94.5v489q0 67 -33 95t-121 28l-12 45q84 8 169.5 31.5t129.5 42.5l43 20v-149q14 4 50 29.5t74 51.5t95.5 48t112.5 22q131 0 199.5 -75t68.5 -195v-500q0 -71 15.5 -93t66.5 -28l64 -8v-55q-136 6 -226 6l-245 -6v55l43 8 q48 9 78 45.5t30 92.5v461q0 167 -162 167q-47 0 -95.5 -17.5t-93.5 -39.5t-75 -27v-561q0 -72 15 -94t65 -27l66 -8v-55q-142 6 -234 6zM469 1073l217 428q12 4 25 4q36 0 59 -24t23 -62q0 -60 -59 -140t-127 -138t-120 -86z" />
<glyph unicode="&#x145;" horiz-adv-x="1712" d="M80 0v59l53 11q133 24 133 200v961q0 68 -26.5 96t-92.5 37l-67 10v60q119 -7 323 -7q8 -21 24.5 -44.5t28 -37.5t42.5 -49l848 -968v903q0 69 -27 96.5t-105 36.5l-98 10v60q179 -9 281 -9q41 0 96.5 2.5t90.5 4.5l36 2v-60l-37 -10q-61 -16 -99 -66.5t-38 -134.5v-1173 l-64 -8l-1007 1140v-919q0 -70 29.5 -97t115.5 -36l98 -11v-59q-195 6 -301 6zM690 -537q67 18 108 58t48 82.5t-17.5 83t-78.5 61.5q0 55 34.5 90t92.5 35q60 0 101.5 -44t41.5 -116q0 -61 -27 -111t-74 -84t-100.5 -56t-116.5 -35z" />
<glyph unicode="&#x146;" horiz-adv-x="1167" d="M51 0v55l58 8q47 6 77.5 43.5t30.5 94.5v489q0 67 -33 95t-121 28l-12 45q84 8 169.5 31.5t129.5 42.5l43 20v-149q14 4 50 29.5t74 51.5t95.5 48t112.5 22q131 0 199.5 -75t68.5 -195v-500q0 -71 15.5 -93t66.5 -28l64 -8v-55q-136 6 -226 6l-245 -6v55l43 8 q48 9 78 45.5t30 92.5v461q0 167 -162 167q-47 0 -95.5 -17.5t-93.5 -39.5t-75 -27v-561q0 -72 15 -94t65 -27l66 -8v-55q-142 6 -234 6zM436 -537q67 18 108 58t48 82.5t-17.5 83t-78.5 61.5q0 55 34.5 90t92.5 35q60 0 101.5 -44t41.5 -116q0 -61 -27 -111t-74 -84 t-100 -56t-116 -35z" />
<glyph unicode="&#x147;" horiz-adv-x="1712" d="M80 0v59l53 11q133 24 133 200v961q0 68 -26.5 96t-92.5 37l-67 10v60q119 -7 323 -7q8 -21 24.5 -44.5t28 -37.5t42.5 -49l848 -968v903q0 69 -27 96.5t-105 36.5l-98 10v60q179 -9 281 -9q41 0 96.5 2.5t90.5 4.5l36 2v-60l-37 -10q-61 -16 -99 -66.5t-38 -134.5v-1173 l-64 -8l-1007 1140v-919q0 -70 29.5 -97t115.5 -36l98 -11v-59q-195 6 -301 6zM541 1806l112 72l215 -246q14 40 34.5 78.5t50.5 77t71 62.5t86 24q40 0 63 -18t25 -39l-330 -279z" />
<glyph unicode="&#x148;" horiz-adv-x="1167" d="M51 0v55l58 8q47 6 77.5 43.5t30.5 94.5v489q0 67 -33 95t-121 28l-12 45q84 8 169.5 31.5t129.5 42.5l43 20v-149q14 4 50 29.5t74 51.5t95.5 48t112.5 22q131 0 199.5 -75t68.5 -195v-500q0 -71 15.5 -93t66.5 -28l64 -8v-55q-136 6 -226 6l-245 -6v55l43 8 q48 9 78 45.5t30 92.5v461q0 167 -162 167q-47 0 -95.5 -17.5t-93.5 -39.5t-75 -27v-561q0 -72 15 -94t65 -27l66 -8v-55q-142 6 -234 6zM274 1450l127 49l199 -323q16 46 37 92t54 103t76 92.5t87 35.5q34 0 56 -18.5t24 -38.5l-330 -361z" />
<glyph unicode="&#x149;" horiz-adv-x="1167" d="M-35 1137q67 18 108 57.5t48 82t-17.5 83t-78.5 61.5q0 55 34.5 90t92.5 35q60 0 101.5 -44t41.5 -116q0 -61 -27 -111t-74 -84t-100.5 -56t-116.5 -35zM51 0v55l58 8q47 6 77.5 43.5t30.5 94.5v489q0 67 -33 95t-121 28l-12 45q84 8 169.5 31.5t129.5 42.5l43 20v-149 q14 4 50 29.5t74 51.5t95.5 48t112.5 22q131 0 199.5 -75t68.5 -195v-500q0 -71 15.5 -93t66.5 -28l64 -8v-55q-136 6 -226 6l-245 -6v55l43 8q48 9 78 45.5t30 92.5v461q0 167 -162 167q-47 0 -95.5 -17.5t-93.5 -39.5t-75 -27v-561q0 -72 15 -94t65 -27l66 -8v-55 q-142 6 -234 6z" />
<glyph unicode="&#x14a;" horiz-adv-x="1712" d="M80 0v59l53 11q133 24 133 200v961q0 68 -26.5 96t-92.5 37l-67 10v60q119 -7 323 -7q8 -21 24.5 -44.5t28 -37.5t42.5 -49l848 -968v903q0 69 -27 96.5t-105 36.5l-98 10v60q179 -9 281 -9q41 0 96.5 2.5t90.5 4.5l36 2v-60l-37 -10q-61 -16 -99 -66.5t-38 -134.5v-1087 q0 -192 -94 -318q-38 -50 -85.5 -83.5t-105.5 -66.5t-98 -67l-27 39q15 23 70.5 73.5t81.5 90.5q37 56 49 123.5t12 157.5v106l-874 991v-919q0 -70 29.5 -97t115.5 -36l98 -11v-59q-195 6 -301 6z" />
<glyph unicode="&#x14b;" horiz-adv-x="1136" d="M51 0v55l58 8q47 6 77.5 43.5t30.5 94.5v489q0 67 -33 95t-121 28l-12 45q84 8 169.5 31.5t129.5 42.5l43 20v-149q14 4 50 29.5t74 51.5t95.5 48t112.5 22q131 0 199.5 -75t68.5 -195v-573q0 -173 -22 -259.5t-90 -156.5q-54 -54 -167.5 -103.5t-133.5 -62.5l-27 41 q20 15 73.5 49t83 61t52.5 68q36 63 46.5 127t10.5 180v607q0 167 -162 167q-47 0 -95.5 -17.5t-93.5 -39.5t-75 -27v-561q0 -72 15 -94t65 -27l66 -8v-55q-142 6 -234 6z" />
<glyph unicode="&#x14c;" horiz-adv-x="1650" d="M80 682q0 154 52 293.5t149.5 248.5t250.5 173.5t340 64.5q145 0 272 -49t222 -139t150 -226t55 -300q0 -123 -32.5 -237t-98.5 -213t-159.5 -173t-222.5 -116t-280 -42q-145 0 -271.5 49.5t-221.5 139t-150 226t-55 300.5zM295 743q0 -161 47 -295t126.5 -220.5 t181.5 -133.5t214 -47q157 0 270 85.5t167.5 228t54.5 325.5q0 130 -30.5 242.5t-84.5 194.5t-126.5 141t-157 88.5t-175.5 29.5q-94 0 -173 -32t-136.5 -89.5t-97.5 -137t-60 -176t-20 -204.5zM553 1663v113q152 -7 285 -7q64 0 135 1.5t110 3.5l39 2v-113q-134 6 -284 6z " />
<glyph unicode="&#x14d;" horiz-adv-x="1101" d="M66 438q0 99 35 191t99.5 165t164 116.5t219.5 43.5q92 0 174 -32.5t144 -92t98 -149t36 -197.5q0 -99 -35 -191t-99 -165t-163.5 -116.5t-218.5 -43.5q-194 0 -324 127.5t-130 343.5zM256 479q0 -199 94 -315.5t223 -116.5q139 0 206 107.5t67 287.5q0 199 -94 314.5 t-224 115.5q-138 0 -205 -107t-67 -286zM305 1204v113q146 -6 279 -6l278 6v-113q-128 6 -278 6z" />
<glyph unicode="&#x14e;" horiz-adv-x="1650" d="M80 682q0 154 52 293.5t149.5 248.5t250.5 173.5t340 64.5q145 0 272 -49t222 -139t150 -226t55 -300q0 -123 -32.5 -237t-98.5 -213t-159.5 -173t-222.5 -116t-280 -42q-145 0 -271.5 49.5t-221.5 139t-150 226t-55 300.5zM295 743q0 -161 47 -295t126.5 -220.5 t181.5 -133.5t214 -47q157 0 270 85.5t167.5 228t54.5 325.5q0 130 -30.5 242.5t-84.5 194.5t-126.5 141t-157 88.5t-175.5 29.5q-94 0 -173 -32t-136.5 -89.5t-97.5 -137t-60 -176t-20 -204.5zM535 1870h139q0 -96 46.5 -149.5t135.5 -53.5q94 0 149.5 54.5t55.5 148.5h57 q0 -149 -75.5 -233.5t-211.5 -84.5q-137 0 -216.5 83.5t-79.5 234.5z" />
<glyph unicode="&#x14f;" horiz-adv-x="1101" d="M66 438q0 99 35 191t99.5 165t164 116.5t219.5 43.5q92 0 174 -32.5t144 -92t98 -149t36 -197.5q0 -99 -35 -191t-99 -165t-163.5 -116.5t-218.5 -43.5q-194 0 -324 127.5t-130 343.5zM256 479q0 -199 94 -315.5t223 -116.5q139 0 206 107.5t67 287.5q0 199 -94 314.5 t-224 115.5q-138 0 -205 -107t-67 -286zM281 1430h139q0 -96 46.5 -149.5t135.5 -53.5q94 0 149.5 54.5t55.5 148.5h57q0 -149 -75 -233.5t-211 -84.5q-137 0 -217 84t-80 234z" />
<glyph unicode="&#x150;" horiz-adv-x="1650" d="M80 682q0 154 52 293.5t149.5 248.5t250.5 173.5t340 64.5q145 0 272 -49t222 -139t150 -226t55 -300q0 -123 -32.5 -237t-98.5 -213t-159.5 -173t-222.5 -116t-280 -42q-145 0 -271.5 49.5t-221.5 139t-150 226t-55 300.5zM295 743q0 -161 47 -295t126.5 -220.5 t181.5 -133.5t214 -47q157 0 270 85.5t167.5 228t54.5 325.5q0 130 -30.5 242.5t-84.5 194.5t-126.5 141t-157 88.5t-175.5 29.5q-94 0 -173 -32t-136.5 -89.5t-97.5 -137t-60 -176t-20 -204.5zM676 1587l153 311q15 5 25 5q33 0 54.5 -24t21.5 -62q0 -75 -76.5 -146 t-159.5 -102zM934 1587l153 311q15 5 25 5q33 0 54.5 -24t21.5 -62q0 -75 -76.5 -146t-159.5 -102z" />
<glyph unicode="&#x151;" horiz-adv-x="1101" d="M66 438q0 99 35 191t99.5 165t164 116.5t219.5 43.5q92 0 174 -32.5t144 -92t98 -149t36 -197.5q0 -99 -35 -191t-99 -165t-163.5 -116.5t-218.5 -43.5q-194 0 -324 127.5t-130 343.5zM256 479q0 -199 94 -315.5t223 -116.5q139 0 206 107.5t67 287.5q0 199 -94 314.5 t-224 115.5q-138 0 -205 -107t-67 -286zM354 1073l217 428q12 4 25 4q36 0 59 -24t23 -62q0 -46 -34.5 -104.5t-84 -109t-99.5 -90.5t-87 -60zM633 1073l217 428q12 4 24 4q36 0 59 -24t23 -62q0 -46 -34.5 -104.5t-84 -109t-99.5 -90.5t-87 -60z" />
<glyph unicode="&#x152;" horiz-adv-x="1929" d="M80 682q0 154 52 293.5t149.5 248.5t250.5 173.5t340 64.5q123 0 236 -35q150 0 320.5 1.5t265.5 3.5l96 2v-336h-49q-22 121 -113.5 193.5t-259.5 72.5q-73 0 -127 -14v-576h145q89 0 130.5 40t54.5 116l14 82h51q-6 -151 -6 -260l6 -228h-51l-8 47q-19 123 -172 123 h-164v-491q0 -64 43.5 -98.5t114.5 -34.5q75 0 136.5 19t103 47.5t76.5 72.5t55.5 84t39.5 92l50 -6l-64 -379q-552 6 -747 6q-128 -39 -271 -39q-145 0 -271.5 49.5t-221.5 139t-150 226t-55 300.5zM295 743q0 -161 47 -295t126.5 -220.5t181.5 -133.5t214 -47 q50 0 86.5 19t56 51.5t28.5 70.5t9 82v938q0 61 -37 101t-94 56.5t-131 16.5q-94 0 -173 -32t-136.5 -89.5t-97.5 -137t-60 -176t-20 -204.5z" />
<glyph unicode="&#x153;" horiz-adv-x="1728" d="M66 438q0 99 35 191t99.5 165t164 116.5t219.5 43.5q116 0 212 -50.5t156 -143.5q134 194 391 194q159 0 240.5 -87t81.5 -249l-33 -28h-600q-4 -33 -4 -90q0 -191 90.5 -295.5t251.5 -104.5q143 0 258 62l17 -39q-139 -156 -361 -156q-249 0 -364 189 q-67 -88 -169 -138.5t-231 -50.5q-194 0 -324 127.5t-130 343.5zM256 479q0 -199 94 -315.5t223 -116.5q139 0 206 107.5t67 287.5q0 199 -94 314.5t-224 115.5q-138 0 -205 -107t-67 -286zM1040 647l445 25q2 14 2 30q0 92 -49.5 136.5t-137.5 44.5q-93 0 -165.5 -65.5 t-94.5 -170.5z" />
<glyph unicode="&#x154;" horiz-adv-x="1429" d="M100 0v59l54 11q133 24 133 200v961q0 68 -26.5 96t-92.5 37l-68 10v60q170 -7 289 -7q46 0 129 3.5t129 3.5q203 0 339 -105.5t136 -286.5q0 -72 -26 -133t-63 -99t-84 -67t-81.5 -42t-62.5 -19q59 -39 123 -143l155 -256q38 -62 72 -103.5t79.5 -77.5t103.5 -53.5 t130 -17.5v-43q-63 -21 -155 -21q-139 0 -239 56t-171 188l-162 305q-34 65 -76 102t-106 37q-20 0 -39 -3.5t-28 -7.5l-9 -3v-438q0 -68 27 -96t92 -37l74 -11v-59q-176 6 -295 6zM483 696q57 41 142 41q63 0 108 -18q67 19 121.5 109.5t54.5 209.5q0 158 -86.5 242 t-232.5 84q-53 0 -107 -14v-654zM618 1587l154 311q15 5 25 5q33 0 54 -24t21 -62q0 -75 -76 -146t-159 -102z" />
<glyph unicode="&#x155;" horiz-adv-x="837" d="M51 0v55l58 8q47 6 77.5 43.5t30.5 94.5v489q0 67 -33 95t-121 28l-12 45q84 8 169.5 31.5t129.5 42.5l43 20v-164q11 2 40 29t61 57t79.5 55t92.5 25q67 0 106 -34.5t39 -94.5q0 -52 -31.5 -83t-81.5 -31q-26 0 -59 10q6 18 6 41q0 27 -18 44t-56 17q-30 0 -64.5 -20 t-66 -44t-47.5 -28v-547q0 -72 15 -94t65 -27l96 -8v-55q-104 6 -264 6q-65 0 -128.5 -1.5t-94.5 -2.5zM432 1073l217 428q12 4 25 4q36 0 59 -24t23 -62q0 -46 -34.5 -104.5t-84 -109t-99.5 -90.5t-87 -60z" />
<glyph unicode="&#x156;" horiz-adv-x="1429" d="M100 0v59l54 11q133 24 133 200v961q0 68 -26.5 96t-92.5 37l-68 10v60q170 -7 289 -7q46 0 129 3.5t129 3.5q203 0 339 -105.5t136 -286.5q0 -72 -26 -133t-63 -99t-84 -67t-81.5 -42t-62.5 -19q59 -39 123 -143l155 -256q38 -62 72 -103.5t79.5 -77.5t103.5 -53.5 t130 -17.5v-43q-63 -21 -155 -21q-139 0 -239 56t-171 188l-162 305q-34 65 -76 102t-106 37q-20 0 -39 -3.5t-28 -7.5l-9 -3v-438q0 -68 27 -96t92 -37l74 -11v-59q-176 6 -295 6zM483 696q57 41 142 41q63 0 108 -18q67 19 121.5 109.5t54.5 209.5q0 158 -86.5 242 t-232.5 84q-53 0 -107 -14v-654zM573 -537q67 18 108 58t48 82.5t-17.5 83t-78.5 61.5q0 55 34.5 90t92.5 35q60 0 101.5 -44t41.5 -116q0 -61 -27 -111t-74 -84t-100 -56t-116 -35z" />
<glyph unicode="&#x157;" horiz-adv-x="837" d="M51 0v55l58 8q47 6 77.5 43.5t30.5 94.5v489q0 67 -33 95t-121 28l-12 45q84 8 169.5 31.5t129.5 42.5l43 20v-164q11 2 40 29t61 57t79.5 55t92.5 25q67 0 106 -34.5t39 -94.5q0 -52 -31.5 -83t-81.5 -31q-26 0 -59 10q6 18 6 41q0 27 -18 44t-56 17q-30 0 -64.5 -20 t-66 -44t-47.5 -28v-547q0 -72 15 -94t65 -27l96 -8v-55q-104 6 -264 6q-65 0 -128.5 -1.5t-94.5 -2.5zM160 -537q67 18 107.5 58t47.5 82.5t-17.5 83t-78.5 61.5q0 55 34.5 90t92.5 35q60 0 101.5 -44t41.5 -116q0 -61 -27 -111t-74 -84t-100 -56t-116 -35z" />
<glyph unicode="&#x158;" horiz-adv-x="1429" d="M100 0v59l54 11q133 24 133 200v961q0 68 -26.5 96t-92.5 37l-68 10v60q170 -7 289 -7q46 0 129 3.5t129 3.5q203 0 339 -105.5t136 -286.5q0 -72 -26 -133t-63 -99t-84 -67t-81.5 -42t-62.5 -19q59 -39 123 -143l155 -256q38 -62 72 -103.5t79.5 -77.5t103.5 -53.5 t130 -17.5v-43q-63 -21 -155 -21q-139 0 -239 56t-171 188l-162 305q-34 65 -76 102t-106 37q-20 0 -39 -3.5t-28 -7.5l-9 -3v-438q0 -68 27 -96t92 -37l74 -11v-59q-176 6 -295 6zM373 1806l112 72l215 -246q14 40 34.5 78.5t50.5 77t71 62.5t86 24q40 0 63 -18t25 -39 l-330 -279zM483 696q57 41 142 41q63 0 108 -18q67 19 121.5 109.5t54.5 209.5q0 158 -86.5 242t-232.5 84q-53 0 -107 -14v-654z" />
<glyph unicode="&#x159;" horiz-adv-x="837" d="M51 0v55l58 8q47 6 77.5 43.5t30.5 94.5v489q0 67 -33 95t-121 28l-12 45q84 8 169.5 31.5t129.5 42.5l43 20v-164q11 2 40 29t61 57t79.5 55t92.5 25q67 0 106 -34.5t39 -94.5q0 -52 -31.5 -83t-81.5 -31q-26 0 -59 10q6 18 6 41q0 27 -18 44t-56 17q-30 0 -64.5 -20 t-66 -44t-47.5 -28v-547q0 -72 15 -94t65 -27l96 -8v-55q-104 6 -264 6q-65 0 -128.5 -1.5t-94.5 -2.5zM80 1450l127 49l199 -323q16 47 36.5 92t53.5 102.5t76 93t87 35.5q34 0 56 -18.5t24 -38.5l-329 -361z" />
<glyph unicode="&#x15a;" horiz-adv-x="1067" d="M90 29v333h60q3 -59 25.5 -113.5t62.5 -100t104 -72.5t143 -27q122 0 214 67t92 183q0 60 -28.5 112t-75 88.5t-106.5 75t-122 71.5t-122 77.5t-106.5 93t-75 119t-28.5 154.5q0 160 115.5 266t326.5 106q69 0 182 -21.5t171 -21.5l-19 -319h-59q0 127 -83.5 203.5 t-219.5 76.5q-115 0 -184.5 -61.5t-69.5 -155.5q0 -60 37.5 -114t98 -97t133 -85.5t145 -91t133 -103.5t98 -131.5t37.5 -165.5q0 -186 -130 -297t-341 -111q-113 0 -223 31t-185 31zM524 1587l154 311q15 5 24 5q33 0 54.5 -24t21.5 -62q0 -75 -76 -146t-159 -102z" />
<glyph unicode="&#x15b;" horiz-adv-x="761" d="M70 285h53q19 -111 83 -172.5t159 -61.5q80 0 131 38t51 101q0 45 -25.5 80.5t-66 60.5t-90 48t-98.5 50t-89.5 60t-66 83t-25.5 114q0 112 88 190t236 78q53 0 135.5 -20.5t116.5 -20.5l-13 -247h-59q0 54 -20 102t-68 82.5t-117 34.5q-77 0 -119.5 -43t-42.5 -101 q0 -43 26 -78t67.5 -60t91.5 -49t100.5 -52t92 -61t67.5 -83.5t26 -113.5q0 -131 -95.5 -204t-246.5 -73q-70 0 -150.5 21.5t-121.5 21.5q0 18 -10 275zM301 1073l217 428q12 4 25 4q36 0 59 -24t23 -62q0 -60 -59 -140t-127 -138t-120 -86z" />
<glyph unicode="&#x15c;" horiz-adv-x="1067" d="M90 29v333h60q3 -59 25.5 -113.5t62.5 -100t104 -72.5t143 -27q122 0 214 67t92 183q0 60 -28.5 112t-75 88.5t-106.5 75t-122 71.5t-122 77.5t-106.5 93t-75 119t-28.5 154.5q0 160 115.5 266t326.5 106q69 0 182 -21.5t171 -21.5l-19 -319h-59q0 127 -83.5 203.5 t-219.5 76.5q-115 0 -184.5 -61.5t-69.5 -155.5q0 -60 37.5 -114t98 -97t133 -85.5t145 -91t133 -103.5t98 -131.5t37.5 -165.5q0 -186 -130 -297t-341 -111q-113 0 -223 31t-185 31zM266 1610l328 268l330 -279q-2 -21 -25 -39t-63 -18q-45 0 -86 24t-71 62.5t-50.5 77 t-34.5 78.5l-215 -246z" />
<glyph unicode="&#x15d;" horiz-adv-x="761" d="M70 285h53q19 -111 83 -172.5t159 -61.5q80 0 131 38t51 101q0 45 -25.5 80.5t-66 60.5t-90 48t-98.5 50t-89.5 60t-66 83t-25.5 114q0 112 88 190t236 78q53 0 135.5 -20.5t116.5 -20.5l-13 -247h-59q0 54 -20 102t-68 82.5t-117 34.5q-77 0 -119.5 -43t-42.5 -101 q0 -43 26 -78t67.5 -60t91.5 -49t100.5 -52t92 -61t67.5 -83.5t26 -113.5q0 -131 -95.5 -204t-246.5 -73q-70 0 -150.5 21.5t-121.5 21.5q0 18 -10 275zM80 1130l330 369l329 -360q-2 -20 -24 -39t-56 -19q-44 0 -87 35.5t-76 93.5t-53.5 103t-36.5 92l-199 -324z" />
<glyph unicode="&#x15e;" horiz-adv-x="1067" d="M90 29v333h60q3 -59 25.5 -113.5t62.5 -100t104 -72.5t143 -27q122 0 214 67t92 183q0 60 -28.5 112t-75 88.5t-106.5 75t-122 71.5t-122 77.5t-106.5 93t-75 119t-28.5 154.5q0 160 115.5 266t326.5 106q69 0 182 -21.5t171 -21.5l-19 -319h-59q0 127 -83.5 203.5 t-219.5 76.5q-115 0 -184.5 -61.5t-69.5 -155.5q0 -60 37.5 -114t98 -97t133 -85.5t145 -91t133 -103.5t98 -131.5t37.5 -165.5q0 -182 -126 -292.5t-329 -115.5q-8 -13 -8 -37q0 -28 17.5 -51t43 -41t51 -37.5t43 -50t17.5 -69.5q0 -70 -76 -117t-174 -47 q-75 0 -124.5 28.5t-49.5 79.5q0 31 24.5 54.5t57.5 23.5q19 0 35 -8q-21 -25 -21 -55q0 -28 25.5 -46t79.5 -18q47 0 74.5 19.5t27.5 52.5q0 24 -25.5 49.5t-55.5 45.5t-55.5 54.5t-25.5 75.5q0 53 43 96q-78 5 -175.5 32.5t-172.5 27.5z" />
<glyph unicode="&#x15f;" horiz-adv-x="761" d="M70 285h53q19 -111 83 -172.5t159 -61.5q80 0 131 38t51 101q0 45 -25.5 80.5t-66 60.5t-90 48t-98.5 50t-89.5 60t-66 83t-25.5 114q0 112 88 190t236 78q53 0 135.5 -20.5t116.5 -20.5l-13 -247h-59q0 54 -20 102t-68 82.5t-117 34.5q-77 0 -119.5 -43t-42.5 -101 q0 -43 26 -78t67.5 -60t91.5 -49t100.5 -52t92 -61t67.5 -83.5t26 -113.5q0 -125 -87.5 -197t-227.5 -78q-8 -16 -8 -39q0 -28 17.5 -51t43 -41t51 -37.5t43 -50t17.5 -69.5q0 -70 -76 -117t-174 -47q-75 0 -124.5 28.5t-49.5 79.5q0 31 24.5 54.5t57.5 23.5q19 0 35 -8 q-21 -25 -21 -55q0 -28 25 -46t79 -18q47 0 75 20t28 52q0 24 -25.5 49.5t-55.5 45.5t-55.5 54.5t-25.5 75.5q0 53 43 96q-44 5 -112 23t-111 18q0 18 -10 275z" />
<glyph unicode="&#x160;" horiz-adv-x="1067" d="M90 29v333h60q3 -59 25.5 -113.5t62.5 -100t104 -72.5t143 -27q122 0 214 67t92 183q0 60 -28.5 112t-75 88.5t-106.5 75t-122 71.5t-122 77.5t-106.5 93t-75 119t-28.5 154.5q0 160 115.5 266t326.5 106q69 0 182 -21.5t171 -21.5l-19 -319h-59q0 127 -83.5 203.5 t-219.5 76.5q-115 0 -184.5 -61.5t-69.5 -155.5q0 -60 37.5 -114t98 -97t133 -85.5t145 -91t133 -103.5t98 -131.5t37.5 -165.5q0 -186 -130 -297t-341 -111q-113 0 -223 31t-185 31zM252 1806l113 72l215 -246q14 40 34.5 78.5t50 77t70.5 62.5t86 24q40 0 63 -18t25 -39 l-329 -279z" />
<glyph unicode="&#x161;" horiz-adv-x="761" d="M70 285h53q19 -111 83 -172.5t159 -61.5q80 0 131 38t51 101q0 45 -25.5 80.5t-66 60.5t-90 48t-98.5 50t-89.5 60t-66 83t-25.5 114q0 112 88 190t236 78q53 0 135.5 -20.5t116.5 -20.5l-13 -247h-59q0 54 -20 102t-68 82.5t-117 34.5q-77 0 -119.5 -43t-42.5 -101 q0 -43 26 -78t67.5 -60t91.5 -49t100.5 -52t92 -61t67.5 -83.5t26 -113.5q0 -131 -95.5 -204t-246.5 -73q-70 0 -150.5 21.5t-121.5 21.5q0 18 -10 275zM90 1450l127 49l199 -323q16 46 37 92t54 103t76 92.5t87 35.5q34 0 56 -18.5t24 -38.5l-330 -361z" />
<glyph unicode="&#x162;" horiz-adv-x="1384" d="M80 1159l22 307h50q2 -4 6 -9t25 -14t50 -9h945q27 0 47.5 8t27.5 16l7 8h45l-23 -317l-51 10q0 191 -215 191h-225v-1147q0 -66 32 -94.5t99 -38.5l65 -11v-59q-111 4 -246 6q-43 -25 -43 -76q0 -28 17.5 -51t43 -41t51 -37.5t43 -50t17.5 -69.5q0 -70 -76 -117 t-173 -47q-75 0 -125 28.5t-50 79.5q0 31 24.5 54.5t57.5 23.5q19 0 35 -8q-20 -24 -20 -55q0 -28 25 -46t79 -18q47 0 75 20t28 52q0 24 -25.5 49.5t-55.5 45.5t-55.5 54.5t-25.5 75.5q0 48 29.5 82.5t60.5 50.5l-281 -6v59l52 11q145 28 145 200v1080h-135 q-141 0 -218.5 -47.5t-109.5 -153.5z" />
<glyph unicode="&#x163;" horiz-adv-x="739" d="M35 874q96 37 166 107q33 33 60.5 72.5t38.5 62.5l11 23l49 -15v-202h316v-97h-316v-575q0 -73 37 -120.5t117 -47.5q55 0 103.5 8t70.5 16l21 9l6 -49q-103 -91 -256 -99q-27 -23 -27 -61q0 -28 17.5 -51t43 -41t51 -38t43 -50.5t17.5 -69.5q0 -70 -76 -117t-174 -47 q-75 0 -124.5 29t-49.5 80q0 31 24 54t58 23q19 0 35 -8q-21 -25 -21 -55q0 -28 25.5 -46t79.5 -18q47 0 74.5 19.5t27.5 52.5q0 20 -16.5 39.5t-40.5 37.5t-47.5 37.5t-40 48t-16.5 62.5q0 70 71 123q-99 11 -154 77t-55 181v600h-143z" />
<glyph unicode="&#x164;" horiz-adv-x="1384" d="M80 1159l22 307h50q2 -4 6 -9t25 -14t50 -9h945q27 0 47.5 8t27.5 16l7 8h45l-23 -317l-51 10q0 191 -215 191h-225v-1147q0 -66 32 -94.5t99 -38.5l65 -11v-59q-139 6 -299 6l-291 -6v59l52 11q145 28 145 200v1080h-135q-141 0 -218.5 -47.5t-109.5 -153.5zM371 1806 l112 72l215 -246q14 40 34.5 78.5t50.5 77t71 62.5t86 24q40 0 63 -18t25 -39l-330 -279z" />
<glyph unicode="&#x165;" horiz-adv-x="739" d="M35 874q96 37 166 107q33 33 60.5 72.5t38.5 62.5l11 23l49 -15v-202h316v-97h-316v-575q0 -73 37 -120.5t117 -47.5q55 0 103.5 8t70.5 16l21 9l6 -49q-111 -99 -281 -99q-116 0 -183 68t-67 194v600h-143zM479 1395q0 44 24 70t60 26q46 0 72.5 -38.5t26.5 -100.5 q0 -67 -38 -151.5t-98 -153.5l-30 18q35 81 34 166.5t-51 163.5z" />
<glyph unicode="&#x166;" horiz-adv-x="1384" d="M80 1159l22 307h50q2 -4 6 -9t25 -14t50 -9h945q27 0 47.5 8t27.5 16l7 8h45l-23 -317l-51 10q0 191 -215 191h-225v-465l247 6v-113q-126 4 -247 6v-581q0 -68 27 -96t91 -37l68 -11v-59q-129 6 -289 6l-280 -6v59l53 11q133 24 133 200v514l-248 -6v113q131 -4 248 -6 v465h-135q-141 0 -218.5 -47.5t-109.5 -153.5z" />
<glyph unicode="&#x167;" horiz-adv-x="739" d="M33 524v94q67 -4 151 -6v217h-143l-6 45q96 37 166 107q33 33 60.5 72.5t38.5 62.5l11 23l49 -15v-202h316v-97h-316v-213l287 6v-94q-150 4 -287 6v-280q0 -73 37 -120.5t117 -47.5q55 0 103.5 8t70.5 16l21 9l6 -49q-111 -99 -281 -99q-116 0 -183 68t-67 194v299z" />
<glyph unicode="&#x168;" horiz-adv-x="1611" d="M100 1374v60q129 -7 289 -7q76 0 148.5 1.5t107.5 3.5l35 2v-60l-51 -10q-66 -13 -106 -64t-40 -137v-690q0 -98 18 -169.5t60.5 -127t117.5 -83t183 -27.5q375 0 375 407v758q0 69 -27 97t-92 36l-78 10v60q140 -7 246 -7l246 7v-60l-41 -10q-67 -16 -106 -66t-39 -135 v-684q0 -257 -128 -384.5t-401 -127.5q-530 0 -530 512v752q0 68 -26.5 96t-92.5 37zM553 1626q14 87 65.5 141t133.5 54q42 0 81.5 -15.5t65.5 -34t62.5 -34t72.5 -15.5q107 0 142 105l30 -33q-14 -90 -66 -142.5t-141 -52.5q-40 0 -78.5 15.5t-63.5 34t-60.5 34 t-71.5 15.5q-106 0 -141 -105z" />
<glyph unicode="&#x169;" horiz-adv-x="1134" d="M33 852v55l297 33l20 -20v-633q0 -87 44.5 -131.5t111.5 -44.5q58 0 104.5 16t92 38.5t81.5 31.5v532q0 68 -31 95.5t-110 27.5v55l297 33l21 -20v-691q0 -69 32 -96t121 -27l10 -45q-76 -6 -158 -29.5t-126 -43.5l-43 -21l-13 170q-19 -2 -56.5 -29.5t-76 -58.5 t-96.5 -56.5t-113 -25.5q-131 0 -199.5 75.5t-68.5 195.5v491q0 68 -31 95.5t-110 27.5zM268 1192q14 87 65.5 140.5t133.5 53.5q53 0 100.5 -24.5t92.5 -49t90 -24.5q106 0 141 105l31 -33q-14 -90 -66 -142.5t-141 -52.5q-40 0 -78.5 15.5t-63.5 34t-61 34t-72 15.5 q-106 0 -141 -105z" />
<glyph unicode="&#x16a;" horiz-adv-x="1611" d="M100 1374v60q129 -7 289 -7q76 0 148.5 1.5t107.5 3.5l35 2v-60l-51 -10q-66 -13 -106 -64t-40 -137v-690q0 -98 18 -169.5t60.5 -127t117.5 -83t183 -27.5q375 0 375 407v758q0 69 -27 97t-92 36l-78 10v60q140 -7 246 -7l246 7v-60l-41 -10q-67 -16 -106 -66t-39 -135 v-684q0 -257 -128 -384.5t-401 -127.5q-530 0 -530 512v752q0 68 -26.5 96t-92.5 37zM569 1663v113q152 -7 285 -7q64 0 135.5 1.5t110.5 3.5l39 2v-113q-135 6 -285 6z" />
<glyph unicode="&#x16b;" horiz-adv-x="1134" d="M33 852v55l297 33l20 -20v-633q0 -87 44.5 -131.5t111.5 -44.5q58 0 104.5 16t92 38.5t81.5 31.5v532q0 68 -31 95.5t-110 27.5v55l297 33l21 -20v-691q0 -69 32 -96t121 -27l10 -45q-76 -6 -158 -29.5t-126 -43.5l-43 -21l-13 170q-19 -2 -56.5 -29.5t-76 -58.5 t-96.5 -56.5t-113 -25.5q-131 0 -199.5 75.5t-68.5 195.5v491q0 68 -31 95.5t-110 27.5zM289 1204v113q145 -6 278 -6l279 6v-113q-129 6 -279 6z" />
<glyph unicode="&#x16c;" horiz-adv-x="1611" d="M100 1374v60q129 -7 289 -7q76 0 148.5 1.5t107.5 3.5l35 2v-60l-51 -10q-66 -13 -106 -64t-40 -137v-690q0 -98 18 -169.5t60.5 -127t117.5 -83t183 -27.5q375 0 375 407v758q0 69 -27 97t-92 36l-78 10v60q140 -7 246 -7l246 7v-60l-41 -10q-67 -16 -106 -66t-39 -135 v-684q0 -257 -128 -384.5t-401 -127.5q-530 0 -530 512v752q0 68 -26.5 96t-92.5 37zM594 1870h139q0 -96 46.5 -149.5t135.5 -53.5q94 0 149.5 54.5t55.5 148.5h58q0 -149 -75.5 -233.5t-211.5 -84.5q-137 0 -217 84t-80 234z" />
<glyph unicode="&#x16d;" horiz-adv-x="1134" d="M33 852v55l297 33l20 -20v-633q0 -87 44.5 -131.5t111.5 -44.5q58 0 104.5 16t92 38.5t81.5 31.5v532q0 68 -31 95.5t-110 27.5v55l297 33l21 -20v-691q0 -69 32 -96t121 -27l10 -45q-76 -6 -158 -29.5t-126 -43.5l-43 -21l-13 170q-19 -2 -56.5 -29.5t-76 -58.5 t-96.5 -56.5t-113 -25.5q-131 0 -199.5 75.5t-68.5 195.5v491q0 68 -31 95.5t-110 27.5zM274 1430h140q0 -96 46.5 -149.5t135.5 -53.5q94 0 149.5 54.5t55.5 148.5h57q0 -149 -75.5 -233.5t-211.5 -84.5q-137 0 -217 84t-80 234z" />
<glyph unicode="&#x16e;" horiz-adv-x="1611" d="M100 1374v60q129 -7 289 -7q76 0 148.5 1.5t107.5 3.5l35 2v-60l-51 -10q-66 -13 -106 -64t-40 -137v-690q0 -98 18 -169.5t60.5 -127t117.5 -83t183 -27.5q375 0 375 407v758q0 69 -27 97t-92 36l-78 10v60q140 -7 246 -7l246 7v-60l-41 -10q-67 -16 -106 -66t-39 -135 v-684q0 -257 -128 -384.5t-401 -127.5q-530 0 -530 512v752q0 68 -26.5 96t-92.5 37zM668 1739q0 85 63.5 150t165.5 65q86 0 144.5 -54.5t58.5 -146.5q0 -86 -63.5 -151.5t-166.5 -65.5q-86 0 -144 54.5t-58 148.5zM758 1751q0 -67 40 -106t95 -39q117 0 117 133 q0 67 -40 106t-96 39q-59 0 -87.5 -36.5t-28.5 -96.5z" />
<glyph unicode="&#x16f;" horiz-adv-x="1134" d="M33 852v55l297 33l20 -20v-633q0 -87 44.5 -131.5t111.5 -44.5q58 0 104.5 16t92 38.5t81.5 31.5v532q0 68 -31 95.5t-110 27.5v55l297 33l21 -20v-691q0 -69 32 -96t121 -27l10 -45q-76 -6 -158 -29.5t-126 -43.5l-43 -21l-13 170q-19 -2 -56.5 -29.5t-76 -58.5 t-96.5 -56.5t-113 -25.5q-131 0 -199.5 75.5t-68.5 195.5v491q0 68 -31 95.5t-110 27.5zM375 1305q0 85 63.5 150t165.5 65q86 0 144.5 -54.5t58.5 -146.5q0 -87 -63 -152t-166 -65q-87 0 -145 54.5t-58 148.5zM465 1317q0 -67 40.5 -106.5t94.5 -39.5q117 0 117 134 q0 67 -39.5 106t-95.5 39q-59 0 -88 -36.5t-29 -96.5z" />
<glyph unicode="&#x170;" horiz-adv-x="1611" d="M100 1374v60q129 -7 289 -7q76 0 148.5 1.5t107.5 3.5l35 2v-60l-51 -10q-66 -13 -106 -64t-40 -137v-690q0 -98 18 -169.5t60.5 -127t117.5 -83t183 -27.5q375 0 375 407v758q0 69 -27 97t-92 36l-78 10v60q140 -7 246 -7l246 7v-60l-41 -10q-67 -16 -106 -66t-39 -135 v-684q0 -257 -128 -384.5t-401 -127.5q-530 0 -530 512v752q0 68 -26.5 96t-92.5 37zM719 1587l153 311q15 5 25 5q33 0 54.5 -24t21.5 -62q0 -75 -76.5 -146t-159.5 -102zM977 1587l153 311q15 5 25 5q33 0 54.5 -24t21.5 -62q0 -75 -76.5 -146t-159.5 -102z" />
<glyph unicode="&#x171;" horiz-adv-x="1134" d="M33 852v55l297 33l20 -20v-633q0 -87 44.5 -131.5t111.5 -44.5q58 0 104.5 16t92 38.5t81.5 31.5v532q0 68 -31 95.5t-110 27.5v55l297 33l21 -20v-691q0 -69 32 -96t121 -27l10 -45q-76 -6 -158 -29.5t-126 -43.5l-43 -21l-13 170q-19 -2 -56.5 -29.5t-76 -58.5 t-96.5 -56.5t-113 -25.5q-131 0 -199.5 75.5t-68.5 195.5v491q0 68 -31 95.5t-110 27.5zM342 1073l217 428q12 4 25 4q36 0 59 -24t23 -62q0 -60 -59 -140t-127 -138t-120 -86zM621 1073l217 428q12 4 24 4q36 0 59 -24t23 -62q0 -46 -34.5 -104.5t-84 -109t-99.5 -90.5 t-87 -60z" />
<glyph unicode="&#x172;" horiz-adv-x="1611" d="M100 1374v60q129 -7 289 -7q76 0 148.5 1.5t107.5 3.5l35 2v-60l-51 -10q-66 -13 -106 -64t-40 -137v-690q0 -98 18 -169.5t60.5 -127t117.5 -83t183 -27.5q375 0 375 407v758q0 69 -27 97t-92 36l-78 10v60q140 -7 246 -7l246 7v-60l-41 -10q-67 -16 -106 -66t-39 -135 v-684q0 -114 -22 -192.5t-69 -149.5q-165 -250 -165 -418q0 -58 33.5 -89t97.5 -31q33 0 59 12.5t37 26.5q12 -4 20.5 -16.5t8.5 -24.5q0 -36 -48 -70.5t-143 -34.5q-63 0 -112.5 16t-84 59t-34.5 109q0 173 198 351q-120 -60 -305 -60q-530 0 -530 512v752q0 68 -26.5 96 t-92.5 37z" />
<glyph unicode="&#x173;" horiz-adv-x="1134" d="M33 852v55l297 33l20 -20v-633q0 -87 44.5 -131.5t111.5 -44.5q58 0 104.5 16t92 38.5t81.5 31.5v532q0 68 -31 95.5t-110 27.5v55l297 33l21 -20v-691q0 -69 32 -96t121 -27l10 -45q-97 -28 -173 -73.5t-117.5 -95t-62.5 -94t-21 -79.5q0 -58 33.5 -89t97.5 -31 q33 0 59 12.5t37 26.5q12 -4 20.5 -16.5t8.5 -24.5q0 -36 -48 -70.5t-143 -34.5q-63 0 -112.5 16t-84 59t-34.5 109q0 49 19.5 95.5t53 83.5t67.5 64t73 50l-13 168q-19 -2 -56.5 -29.5t-76 -58.5t-96.5 -56.5t-113 -25.5q-131 0 -199.5 75.5t-68.5 195.5v491q0 68 -31 95.5 t-110 27.5z" />
<glyph unicode="&#x174;" horiz-adv-x="2201" d="M41 1374v60q122 -7 278 -7q76 0 148.5 1.5t107.5 3.5l35 2v-60l-41 -10q-55 -13 -82.5 -40t-27.5 -79q0 -13 12 -55l299 -916l297 961q6 18 6 47q0 35 -22.5 55t-73.5 27l-68 10v60q117 -7 244 -7h64q-1 -61 32 -165l310 -992l294 951q15 51 15 69q0 31 -20 49t-68 25 l-72 10v60q117 -7 238 -7q54 0 107.5 1.5t80.5 3.5l27 2v-60l-41 -10q-57 -15 -102 -67t-72 -130l-408 -1192l-65 -8l-361 1082l-352 -1074l-66 -8l-440 1268q-25 69 -53.5 94.5t-91.5 34.5zM784 1610l328 268l330 -279q-2 -21 -25 -39t-63 -18q-45 0 -86 24t-71 62.5 t-50.5 77t-34.5 78.5l-215 -246z" />
<glyph unicode="&#x175;" horiz-adv-x="1624" d="M20 866v56q132 -7 222 -7l219 7v-56l-41 -8q-70 -14 -70 -65q0 -19 6 -37l189 -553l211 559q10 33 10 49q0 33 -35 43l-39 12v56q66 -4 101 -4h86q18 -68 78.5 -247t111.5 -323l51 -145l228 567q8 20 8 35q0 40 -60 51l-61 10v56q90 -7 217 -7q35 0 73 1.5t59 3.5l20 2 v-56l-39 -6q-61 -10 -96 -48t-64 -110l-297 -735h-72l-239 656l-265 -656h-71l-281 762q-25 69 -48.5 94.5t-70.5 34.5zM504 1130l330 369l329 -360q-2 -20 -24 -39t-56 -19q-44 0 -87 35.5t-76 93t-54 103t-37 92.5l-198 -324z" />
<glyph unicode="&#x176;" horiz-adv-x="1384" d="M41 1374v60q143 -7 258 -7l264 7v-60l-41 -10q-57 -14 -57 -74q0 -32 20 -73l281 -525l278 549q19 40 19 64q0 47 -76 59l-61 10v60q127 -7 225 -7q53 0 101 1.5t70 3.5l21 2v-60l-40 -10q-62 -15 -96.5 -41t-61.5 -78l-342 -643v-399q0 -68 27 -96t92 -37l67 -11v-59 q-129 6 -289 6l-280 -6v59l53 11q133 24 133 200v332l-364 672q-24 43 -52 63t-81 27zM422 1610l328 268l329 -279q-2 -21 -25 -39t-63 -18q-45 0 -86 24t-70.5 62.5t-50 77t-34.5 78.5l-215 -246z" />
<glyph unicode="&#x177;" horiz-adv-x="1060" d="M-37 -315q0 37 29 65.5t82 28.5q24 0 32 -4q-4 -12 -4 -23q0 -80 93 -80q150 0 223 185l51 127l-264 747q-23 67 -51 93.5t-70 33.5l-55 8v56q155 -7 247 -7l207 7v-56l-51 -8q-61 -9 -61 -47q0 -15 4 -29l182 -589l225 577q11 33 11 39q0 40 -54 49l-55 8v56 q86 -7 195 -7q40 0 79.5 1.5t58.5 3.5l19 2v-56l-30 -6q-49 -10 -82.5 -38t-57.5 -85l-383 -907q-57 -136 -136 -210.5t-195 -74.5q-100 0 -144.5 41.5t-44.5 98.5zM256 1130l330 369l329 -360q-2 -20 -23.5 -39t-55.5 -19q-44 0 -87 35.5t-76 93t-54 103t-37 92.5 l-199 -324z" />
<glyph unicode="&#x178;" horiz-adv-x="1384" d="M41 1374v60q143 -7 258 -7l264 7v-60l-41 -10q-57 -14 -57 -74q0 -32 20 -73l281 -525l278 549q19 40 19 64q0 47 -76 59l-61 10v60q127 -7 225 -7q53 0 101 1.5t70 3.5l21 2v-60l-40 -10q-62 -15 -96.5 -41t-61.5 -78l-342 -643v-399q0 -68 27 -96t92 -37l67 -11v-59 q-129 6 -289 6l-280 -6v59l53 11q133 24 133 200v332l-364 672q-24 43 -52 63t-81 27zM440 1731q0 43 32.5 74.5t76.5 31.5q43 0 74.5 -31.5t31.5 -74.5t-32 -76t-74 -33q-44 0 -76.5 33t-32.5 76zM850 1731q0 43 31.5 74.5t74.5 31.5q44 0 76.5 -31.5t32.5 -74.5t-32.5 -76 t-76.5 -33q-42 0 -74 33t-32 76z" />
<glyph unicode="&#x179;" horiz-adv-x="1341" d="M53 29l895 1319l-434 -23q-164 -9 -248.5 -65.5t-120.5 -174.5l-49 7l47 374h58q0 -1 1 -3.5t6.5 -8t14.5 -9.5t27.5 -7.5t42.5 -3.5h899l18 -45l-882 -1305l372 20q91 5 165.5 24.5t129.5 49.5t101 75.5t78.5 95.5t64.5 116l49 -12l-112 -453h-1106zM606 1587l154 311 q15 5 24 5q33 0 54.5 -24t21.5 -62q0 -75 -76 -146t-159 -102z" />
<glyph unicode="&#x17a;" horiz-adv-x="952" d="M72 33l575 817l-229 -6q-110 -3 -172 -43.5t-92 -134.5l-37 4l47 276h43q22 -28 72 -28l591 4l11 -31l-586 -819l231 8q126 6 202 50t106 134l20 58l39 -9l-64 -313h-745zM442 1073l217 428q12 4 25 4q36 0 59 -24t23 -62q0 -46 -34.5 -104.5t-84 -109t-99.5 -90.5 t-87 -60z" />
<glyph unicode="&#x17b;" horiz-adv-x="1341" d="M53 29l895 1319l-434 -23q-164 -9 -248.5 -65.5t-120.5 -174.5l-49 7l47 374h58q0 -1 1 -3.5t6.5 -8t14.5 -9.5t27.5 -7.5t42.5 -3.5h899l18 -45l-882 -1305l372 20q91 5 165.5 24.5t129.5 49.5t101 75.5t78.5 95.5t64.5 116l49 -12l-112 -453h-1106zM551 1690 q0 51 34.5 85.5t84.5 34.5q51 0 86 -34.5t35 -85.5q0 -50 -35 -84.5t-86 -34.5q-50 0 -84.5 34.5t-34.5 84.5z" />
<glyph unicode="&#x17c;" horiz-adv-x="952" d="M72 33l575 817l-229 -6q-110 -3 -172 -43.5t-92 -134.5l-37 4l47 276h43q22 -28 72 -28l591 4l11 -31l-586 -819l231 8q126 6 202 50t106 134l20 58l39 -9l-64 -313h-745zM397 1341q0 51 34.5 86t84.5 35q51 0 86 -35t35 -86q0 -50 -35 -84t-86 -34q-50 0 -84.5 34.5 t-34.5 83.5z" />
<glyph unicode="&#x17d;" horiz-adv-x="1341" d="M53 29l895 1319l-434 -23q-164 -9 -248.5 -65.5t-120.5 -174.5l-49 7l47 374h58q0 -1 1 -3.5t6.5 -8t14.5 -9.5t27.5 -7.5t42.5 -3.5h899l18 -45l-882 -1305l372 20q91 5 165.5 24.5t129.5 49.5t101 75.5t78.5 95.5t64.5 116l49 -12l-112 -453h-1106zM362 1806l113 72 l215 -246q14 40 34.5 78.5t50.5 77t71 62.5t86 24q40 0 63 -18t25 -39l-330 -279z" />
<glyph unicode="&#x17e;" horiz-adv-x="952" d="M72 33l575 817l-229 -6q-110 -3 -172 -43.5t-92 -134.5l-37 4l47 276h43q22 -28 72 -28l591 4l11 -31l-586 -819l231 8q126 6 202 50t106 134l20 58l39 -9l-64 -313h-745zM209 1450l127 49l199 -323q16 47 36.5 92t53.5 102.5t76 93t87 35.5q34 0 56 -18.5t24 -38.5 l-329 -361z" />
<glyph unicode="&#x192;" horiz-adv-x="1044" d="M-276 -387q0 75 75 96q30 -70 64.5 -95.5t81.5 -25.5q140 0 188 279l121 715h-174l4 26q44 4 89.5 14.5t68.5 18.5l24 8q38 267 189 436.5t350 169.5q104 0 163.5 -41.5t59.5 -99.5q0 -41 -30.5 -67.5t-69.5 -26.5l-21 2q-5 17 -15.5 36.5t-30 46t-52.5 43.5t-72 17 q-82 0 -137 -57.5t-86 -200.5l-53 -248h268l-20 -77h-269l-108 -469q-32 -136 -74.5 -244t-88 -178t-96.5 -117t-99 -66.5t-97 -19.5q-69 0 -111 35t-42 90z" />
<glyph unicode="&#x1e2;" horiz-adv-x="1923" d="M27 0v59l65 11q70 10 132 59.5t108 126.5l579 997q11 22 11 35q0 59 -129 76l-78 10v60q254 -7 426 -7q150 0 308 1.5t241 3.5l82 2v-306h-50q-9 108 -95.5 172t-252.5 64q-85 0 -139 -14v-576h156q89 0 130 40t54 116l14 82h51q-6 -151 -6 -260l6 -228h-51l-8 47 q-19 123 -172 123h-174v-491q0 -64 43.5 -98.5t114.5 -34.5q94 0 161.5 17.5t111.5 54.5t70 79t50 105l49 -7l-45 -319q-462 6 -657 6q-86 0 -156 -1.5t-97 -2.5l-28 -2v59l53 11q133 24 133 200v267h-440l-174 -320q-29 -57 -29 -82q0 -49 78 -63l66 -13v-59q-206 8 -310 8 zM641 621h397v688zM977 1663v113q152 -7 285 -7q64 0 135 1.5t110 3.5l39 2v-113q-134 6 -284 6z" />
<glyph unicode="&#x1e3;" horiz-adv-x="1464" d="M68 176q0 82 49 142t129.5 92t166.5 46.5t177 14.5q6 98 6 207q0 90 -37.5 140t-128.5 50q-68 0 -102.5 -30.5t-34.5 -73.5q0 -46 26 -76q-42 -31 -98 -31q-50 0 -79 25.5t-29 69.5q0 82 109.5 142t252.5 60q109 0 174.5 -42t85.5 -111q50 68 144.5 110.5t199.5 42.5 q159 0 240.5 -87t81.5 -249l-33 -28h-600q-4 -33 -4 -90q0 -191 91 -295.5t253 -104.5q141 0 256 62l16 -39q-139 -156 -360 -156q-220 0 -336 154q-32 -11 -74.5 -38.5t-77.5 -52t-96 -44t-133 -19.5q-111 0 -173 54.5t-62 154.5zM248 199q0 -129 129 -129q55 0 105 18 t97.5 43t77.5 33q-33 44 -50 112t-17 132q-145 0 -243.5 -56.5t-98.5 -152.5zM510 1204v113q145 -6 278 -6l279 6v-113q-129 6 -279 6zM776 647l445 25q2 14 2 30q0 181 -193 181q-92 0 -162 -65t-92 -171z" />
<glyph unicode="&#x1fa;" horiz-adv-x="1486" d="M31 0v59l53 11q62 11 97 54.5t67 131.5l418 1149q-63 18 -101.5 68.5t-38.5 125.5q0 85 64 150.5t166 65.5q86 0 144 -54.5t58 -146.5q0 -73 -46.5 -133t-125.5 -78l457 -1206q44 -113 143 -127l70 -11v-59q-120 8 -278 8q-86 0 -160.5 -2t-106.5 -4l-32 -2v59l53 11 q58 10 81 31.5t23 60.5q0 34 -26 104l-99 271h-462l-107 -320q-12 -37 -12 -65q0 -37 23.5 -55t88.5 -27l78 -11v-59q-131 6 -289 6q-54 0 -104 -1.5t-73 -2.5zM475 621h406l-201 577zM616 1612q0 -67 40.5 -106.5t95.5 -39.5q116 0 116 133q0 67 -39.5 106.5t-95.5 39.5 q-59 0 -88 -36.5t-29 -96.5zM664 1882l153 311q15 5 25 5q33 0 54.5 -24.5t21.5 -62.5q0 -39 -25.5 -80.5t-63.5 -74t-77 -57t-70 -35.5z" />
<glyph unicode="&#x1fb;" horiz-adv-x="960" d="M68 176q0 66 32 118.5t83 85.5t121 54.5t140 30t146 8.5q6 137 6 205q0 90 -37.5 140t-128.5 50q-68 0 -102.5 -30.5t-34.5 -73.5q0 -46 26 -76q-42 -31 -98 -31q-50 0 -79 25.5t-29 69.5q0 82 109.5 142t252.5 60q291 0 291 -313q0 -63 -5 -193.5t-5 -199.5 q0 -86 19 -127t77 -41q23 0 44 5t30 10l10 5l18 -34q-2 -4 -7 -10.5t-22 -24t-36 -30.5t-50.5 -23.5t-64.5 -10.5q-67 0 -108.5 35.5t-55.5 85.5q-26 -6 -60.5 -26.5t-63 -41t-78 -37t-105.5 -16.5q-111 0 -173 54.5t-62 154.5zM248 199q0 -64 36.5 -96.5t92.5 -32.5 q57 0 126 28.5t93 34.5q-10 57 -10 133l2 142q-147 0 -243.5 -54t-96.5 -155zM270 1278q0 85 64 150t166 65q86 0 144 -54.5t58 -146.5q0 -87 -63 -152t-166 -65q-87 0 -145 54.5t-58 148.5zM360 1290q0 -67 40.5 -106t95.5 -39q116 0 116 133q0 67 -39.5 106t-95.5 39 q-59 0 -88 -36.5t-29 -96.5zM416 1587l153 311q15 5 25 5q33 0 54.5 -24t21.5 -62q0 -50 -44 -105.5t-96.5 -91.5t-95.5 -51z" />
<glyph unicode="&#x1fc;" horiz-adv-x="1923" d="M27 0v59l65 11q70 10 132 59.5t108 126.5l579 997q11 22 11 35q0 59 -129 76l-78 10v60q254 -7 426 -7q150 0 308 1.5t241 3.5l82 2v-306h-50q-9 108 -95.5 172t-252.5 64q-85 0 -139 -14v-576h156q89 0 130 40t54 116l14 82h51q-6 -151 -6 -260l6 -228h-51l-8 47 q-19 123 -172 123h-174v-491q0 -64 43.5 -98.5t114.5 -34.5q94 0 161.5 17.5t111.5 54.5t70 79t50 105l49 -7l-45 -319q-462 6 -657 6q-86 0 -156 -1.5t-97 -2.5l-28 -2v59l53 11q133 24 133 200v267h-440l-174 -320q-29 -57 -29 -82q0 -49 78 -63l66 -13v-59q-206 8 -310 8 zM641 621h397v688zM1155 1587l154 311q15 5 24 5q33 0 54.5 -24t21.5 -62q0 -50 -43.5 -105.5t-96 -91.5t-95.5 -51z" />
<glyph unicode="&#x1fd;" horiz-adv-x="1464" d="M68 176q0 82 49 142t129.5 92t166.5 46.5t177 14.5q6 98 6 207q0 90 -37.5 140t-128.5 50q-68 0 -102.5 -30.5t-34.5 -73.5q0 -46 26 -76q-42 -31 -98 -31q-50 0 -79 25.5t-29 69.5q0 82 109.5 142t252.5 60q109 0 174.5 -42t85.5 -111q50 68 144.5 110.5t199.5 42.5 q159 0 240.5 -87t81.5 -249l-33 -28h-600q-4 -33 -4 -90q0 -191 91 -295.5t253 -104.5q141 0 256 62l16 -39q-139 -156 -360 -156q-220 0 -336 154q-32 -11 -74.5 -38.5t-77.5 -52t-96 -44t-133 -19.5q-111 0 -173 54.5t-62 154.5zM248 199q0 -129 129 -129q55 0 105 18 t97.5 43t77.5 33q-33 44 -50 112t-17 132q-145 0 -243.5 -56.5t-98.5 -152.5zM688 1073l217 428q12 4 25 4q36 0 59 -24t23 -62q0 -46 -34.5 -104.5t-84 -109t-99.5 -90.5t-87 -60zM776 647l445 25q2 14 2 30q0 181 -193 181q-92 0 -162 -65t-92 -171z" />
<glyph unicode="&#x1fe;" horiz-adv-x="1650" d="M80 682q0 154 52 293.5t149.5 248.5t250.5 173.5t340 64.5q204 0 367 -94l102 141h136q-101 -127 -154 -198q117 -95 182.5 -238.5t65.5 -324.5q0 -123 -32.5 -237t-98.5 -213t-159.5 -173t-222.5 -116t-280 -42q-216 0 -381 103l-104 -142h-135q21 28 79.5 103t75.5 98 q-110 95 -171.5 235.5t-61.5 317.5zM295 743q0 -274 133 -464q25 33 157 204.5t195 259.5q64 90 189 255.5t178 238.5q-157 145 -365 145q-94 0 -173 -32t-136.5 -89.5t-97.5 -137t-60 -176t-20 -204.5zM492 203q156 -156 372 -156q157 0 270 85.5t167.5 228t54.5 325.5 q0 287 -146 477q-210 -274 -362 -479q-298 -400 -356 -481zM784 1587l154 311q15 5 25 5q33 0 54 -24t21 -62q0 -50 -43.5 -105.5t-96 -91.5t-95.5 -51z" />
<glyph unicode="&#x1ff;" horiz-adv-x="1101" d="M45 -33l135 144q-114 127 -114 327q0 99 35 191t99 165t163.5 116.5t218.5 43.5q155 0 274 -86l72 84h143l-147 -145q112 -128 112 -324q0 -99 -35 -191t-99 -165t-163.5 -116.5t-218.5 -43.5q-150 0 -268 78l-66 -78h-141zM256 479q0 -133 45 -235l453 510 q-87 118 -226 118q-138 0 -205 -107t-67 -286zM350 164q88 -117 223 -117q138 0 205.5 108t67.5 287q0 134 -45 232q-82 -89 -451 -510zM483 1073l217 428q12 4 25 4q36 0 59 -24t23 -62q0 -46 -34.5 -104.5t-84 -109t-99.5 -90.5t-87 -60z" />
<glyph unicode="&#x218;" horiz-adv-x="1067" d="M90 29v333h60q3 -59 25.5 -113.5t62.5 -100t104 -72.5t143 -27q122 0 214 67t92 183q0 60 -28.5 112t-75 88.5t-106.5 75t-122 71.5t-122 77.5t-106.5 93t-75 119t-28.5 154.5q0 160 115.5 266t326.5 106q69 0 182 -21.5t171 -21.5l-19 -319h-59q0 127 -83.5 203.5 t-219.5 76.5q-115 0 -184.5 -61.5t-69.5 -155.5q0 -60 37.5 -114t98 -97t133 -85.5t145 -91t133 -103.5t98 -131.5t37.5 -165.5q0 -186 -130 -297t-341 -111q-113 0 -223 31t-185 31zM328 -537q67 18 107.5 58t47.5 82.5t-17.5 83t-78.5 61.5q0 55 34.5 90t92.5 35 q60 0 101.5 -44t41.5 -116q0 -61 -27 -111t-74 -84t-100 -56t-116 -35z" />
<glyph unicode="&#x219;" horiz-adv-x="761" d="M70 285h53q19 -111 83 -172.5t159 -61.5q80 0 131 38t51 101q0 45 -25.5 80.5t-66 60.5t-90 48t-98.5 50t-89.5 60t-66 83t-25.5 114q0 112 88 190t236 78q53 0 135.5 -20.5t116.5 -20.5l-13 -247h-59q0 54 -20 102t-68 82.5t-117 34.5q-77 0 -119.5 -43t-42.5 -101 q0 -43 26 -78t67.5 -60t91.5 -49t100.5 -52t92 -61t67.5 -83.5t26 -113.5q0 -131 -95.5 -204t-246.5 -73q-70 0 -150.5 21.5t-121.5 21.5q0 18 -10 275zM180 -537q67 18 108 58t48 82.5t-17.5 83t-78.5 61.5q0 55 34.5 90t92.5 35q60 0 101.5 -44t41.5 -116q0 -61 -27 -111 t-74 -84t-100 -56t-116 -35z" />
<glyph unicode="&#x21a;" horiz-adv-x="1384" d="M80 1159l22 307h50q2 -4 6 -9t25 -14t50 -9h945q27 0 47.5 8t27.5 16l7 8h45l-23 -317l-51 10q0 191 -215 191h-225v-1147q0 -66 32 -94.5t99 -38.5l65 -11v-59q-139 6 -299 6l-291 -6v59l52 11q145 28 145 200v1080h-135q-141 0 -218.5 -47.5t-109.5 -153.5zM494 -537 q67 18 107.5 58t47.5 82.5t-17.5 83t-78.5 61.5q0 55 34.5 90t92.5 35q60 0 101.5 -44t41.5 -116q0 -61 -27 -111t-74 -84t-100 -56t-116 -35z" />
<glyph unicode="&#x21b;" horiz-adv-x="739" d="M35 874q96 37 166 107q33 33 60.5 72.5t38.5 62.5l11 23l49 -15v-202h316v-97h-316v-575q0 -73 37 -120.5t117 -47.5q55 0 103.5 8t70.5 16l21 9l6 -49q-111 -99 -281 -99q-116 0 -183 68t-67 194v600h-143zM205 -537q67 18 107.5 58t47.5 82.5t-17.5 83t-78.5 61.5 q0 55 34.5 90t92.5 35q60 0 102 -44t42 -116q0 -61 -27 -111t-74 -84t-100.5 -56t-116.5 -35z" />
<glyph unicode="&#x237;" horiz-adv-x="577" d="M-47 -430q20 15 73.5 49t83 61t52.5 68q36 63 45.5 126t9.5 181v635q0 67 -33 95t-121 28l-10 45q84 8 169 31.5t128 42.5l43 20v-837q0 -163 -22.5 -257.5t-89.5 -162.5q-54 -54 -167.5 -103.5t-133.5 -62.5z" />
<glyph unicode="&#x2b0;" horiz-adv-x="931" d="M25 594v47l45 6q38 5 63 34.5t25 74.5v852q0 55 -27 77.5t-96 22.5l-10 39q68 6 136 25t102 35l34 16v-586q13 3 58.5 34.5t105.5 59t117 27.5q104 0 159.5 -60.5t55.5 -156.5v-398q0 -57 12 -74t51 -22l53 -6v-47q-110 4 -180 4l-197 -4v47l33 6q39 8 62.5 36t23.5 73 v362q0 135 -127 135q-38 0 -80.5 -14t-83 -31.5t-63.5 -21.5v-443q0 -57 12 -74t53 -22l52 -6v-47q-113 4 -187 4z" />
<glyph unicode="&#x2b2;" horiz-adv-x="460" d="M-39 252q16 12 59 39.5t66.5 49t42.5 54.5q29 51 37 101.5t8 144.5v502q0 53 -27 75.5t-96 22.5l-8 41q68 6 135.5 24.5t101.5 33.5l33 16v-670q0 -130 -18 -205.5t-72 -130.5q-43 -43 -132 -82t-107 -51zM145 1667q0 41 28 69.5t67 28.5q41 0 69.5 -28.5t28.5 -69.5 q0 -39 -28.5 -66.5t-69.5 -27.5q-38 0 -66.5 28t-28.5 66z" />
<glyph unicode="&#x2b7;" horiz-adv-x="1300" d="M16 1288v43q105 -4 179 -4l174 4v-43l-33 -6q-55 -11 -55 -53q0 -13 4 -29l151 -442l168 446q8 21 8 39q0 27 -26 35l-31 10v43q51 -2 80 -2h67q15 -55 63.5 -197.5t90.5 -257.5l41 -116l182 452q6 24 6 29q0 32 -47 41l-49 8v43q72 -4 172 -4l123 4v-43l-33 -6 q-48 -7 -75.5 -37t-51.5 -88l-237 -588h-58l-192 525l-211 -525h-57l-224 609q-20 56 -39 76.5t-57 27.5z" />
<glyph unicode="&#x2b8;" horiz-adv-x="847" d="M-29 342q0 29 22.5 51.5t65.5 22.5q23 0 27 -2q-4 -12 -4 -19q0 -63 74 -63q120 0 178 147l41 101l-211 598q-19 54 -41 75.5t-55 26.5l-45 6v45q124 -6 198 -6l166 6v-45l-41 -6q-22 -4 -34.5 -13t-12.5 -32q0 -14 6 -35l141 -452l175 446q14 37 14 49q0 32 -43 37 l-45 6v45q69 -6 155 -6q32 0 63.5 1.5t47.5 3.5l16 1v-45l-24 -4q-78 -16 -113 -98l-305 -727q-96 -228 -266 -228q-80 0 -115 33.5t-35 79.5z" />
<glyph unicode="&#x2c6;" horiz-adv-x="735" d="M37 1130l330 369l329 -360q-2 -20 -24 -39t-56 -19q-44 0 -87 35.5t-76 93t-54 103t-37 92.5l-198 -324z" />
<glyph unicode="&#x2c7;" horiz-adv-x="735" d="M37 1450l127 49l198 -323q16 46 37 92t54 103t76 92.5t87 35.5q34 0 56 -18.5t24 -38.5l-329 -361z" />
<glyph unicode="&#x2d8;" horiz-adv-x="692" d="M53 1430h140q0 -96 46.5 -149.5t135.5 -53.5q94 0 149.5 54.5t55.5 148.5h57q0 -149 -75.5 -233.5t-211.5 -84.5q-137 0 -217 84t-80 234z" />
<glyph unicode="&#x2d9;" horiz-adv-x="569" d="M166 1341q0 51 34.5 86t84.5 35q51 0 86 -35t35 -86q0 -50 -35 -84t-86 -34q-50 0 -84.5 34.5t-34.5 83.5z" />
<glyph unicode="&#x2da;" horiz-adv-x="591" d="M80 1305q0 85 63.5 150t165.5 65q86 0 144.5 -54.5t58.5 -146.5q0 -87 -63 -152t-166 -65q-87 0 -145 54.5t-58 148.5zM170 1317q0 -67 40.5 -106.5t94.5 -39.5q117 0 117 134q0 67 -39.5 106t-95.5 39q-59 0 -88 -36.5t-29 -96.5z" />
<glyph unicode="&#x2db;" horiz-adv-x="464" d="M23 -324q0 59 32.5 116.5t79 97.5t92.5 71t79 47l32 15l20 -27q-170 -147 -170 -277q0 -58 33.5 -89t97.5 -31q33 0 59.5 12.5t37.5 26.5q12 -4 20 -16.5t8 -24.5q0 -36 -47.5 -70.5t-142.5 -34.5q-63 0 -112.5 16t-84 59t-34.5 109z" />
<glyph unicode="&#x2dc;" horiz-adv-x="794" d="M70 1192q14 87 65 140.5t133 53.5q53 0 100.5 -24.5t92.5 -49t90 -24.5q106 0 141 105l31 -33q-14 -90 -66 -142.5t-141 -52.5q-40 0 -78.5 15.5t-63.5 34t-60.5 34t-71.5 15.5q-107 0 -142 -105z" />
<glyph unicode="&#x2dd;" horiz-adv-x="901" d="M150 1073l217 428q12 4 24 4q36 0 59 -24t23 -62q0 -46 -34.5 -104.5t-84 -109t-99.5 -90.5t-87 -60zM428 1073l217 428q12 4 25 4q36 0 59 -24t23 -62q0 -60 -59 -140t-127 -138t-120 -86z" />
<glyph unicode="&#x2e3;" horiz-adv-x="864" d="M-12 590v49l55 6q83 9 143 84l174 207l-184 268q-20 29 -29.5 40t-26.5 21.5t-42 14.5l-45 6v45q78 -4 182 -4l188 4v-45l-47 -8q-32 -5 -32 -31q0 -24 22 -55l109 -148l129 160q18 27 18 43q0 24 -39 31l-39 8v45q55 -4 174 -4l146 4v-45l-45 -8q-52 -8 -82.5 -24 t-59.5 -52l-172 -207l193 -280q22 -31 50.5 -46t84.5 -24l39 -6v-49q-72 4 -201 4l-200 -4v49l41 6q34 6 34 35q0 15 -16 41l-113 164l-139 -166q-18 -22 -18 -39q0 -15 13.5 -26.5t39.5 -12.5l26 -2v-49q-65 4 -167 4z" />
<glyph unicode="&#x3a9;" horiz-adv-x="1705" d="M100 326h56q17 -84 64 -129t151 -45h227q-12 40 -63.5 99t-114 123.5t-124 139t-103 168.5t-41.5 188q0 116 35.5 213.5t99.5 167t151.5 117.5t192 71t221.5 23t221.5 -23t192 -71t151.5 -117.5t99.5 -167t35.5 -213.5q0 -94 -41.5 -188t-103 -168.5t-124 -139 t-114 -123.5t-63.5 -99h227q104 0 151 45t64 129h56l-41 -326h-592q0 61 20 126t52.5 124t71.5 120t78 122.5t71.5 121.5t52.5 126.5t20 129.5q0 235 -127 373.5t-358 138.5t-358 -138.5t-127 -373.5q0 -63 20 -129.5t52.5 -126.5t71.5 -121.5t78 -122.5t71.5 -120 t52.5 -124t20 -126h-592z" />
<glyph unicode="&#x3c0;" horiz-adv-x="1169" d="M68 602q0 301 311 301h520q81 0 116 6.5t64 24.5l19 -10q-18 -85 -78 -117.5t-189 -34.5q-23 -68 -39 -191t-16 -255q0 -112 27 -164.5t90 -52.5q52 0 93.5 28t86.5 90l27 -16q-105 -244 -289 -244q-39 0 -70 12.5t-49.5 36t-31 49.5t-18 60.5t-7.5 61.5t-2 59q0 30 3 62 t11.5 73.5t14.5 69.5t21 81.5t21.5 75t25.5 85t24 79.5h-283q-11 -72 -22 -160.5t-17.5 -152.5t-16 -135.5t-19.5 -120.5t-27 -97t-38 -76.5t-52.5 -45.5t-71.5 -17q-33 0 -57.5 24.5t-24.5 57.5q50 39 89.5 103.5t64 129.5t45.5 159.5t31.5 161.5t23.5 169q-114 0 -181 -39 t-98 -141z" />
<glyph unicode="&#x1e80;" horiz-adv-x="2201" d="M41 1374v60q122 -7 278 -7q76 0 148.5 1.5t107.5 3.5l35 2v-60l-41 -10q-55 -13 -82.5 -40t-27.5 -79q0 -13 12 -55l299 -916l297 961q6 18 6 47q0 35 -22.5 55t-73.5 27l-68 10v60q117 -7 244 -7h64q-1 -61 32 -165l310 -992l294 951q15 51 15 69q0 31 -20 49t-68 25 l-72 10v60q117 -7 238 -7q54 0 107.5 1.5t80.5 3.5l27 2v-60l-41 -10q-57 -15 -102 -67t-72 -130l-408 -1192l-65 -8l-361 1082l-352 -1074l-66 -8l-440 1268q-25 69 -53.5 94.5t-91.5 34.5zM967 1817q0 38 21 62t54 24q10 0 25 -5l154 -311l-19 -18q-83 31 -159 102 t-76 146z" />
<glyph unicode="&#x1e81;" horiz-adv-x="1624" d="M20 866v56q132 -7 222 -7l219 7v-56l-41 -8q-70 -14 -70 -65q0 -19 6 -37l189 -553l211 559q10 33 10 49q0 33 -35 43l-39 12v56q66 -4 101 -4h86q18 -68 78.5 -247t111.5 -323l51 -145l228 567q8 20 8 35q0 40 -60 51l-61 10v56q90 -7 217 -7q35 0 73 1.5t59 3.5l20 2 v-56l-39 -6q-61 -10 -96 -48t-64 -110l-297 -735h-72l-239 656l-265 -656h-71l-281 762q-25 69 -48.5 94.5t-70.5 34.5zM561 1419q0 38 23 62t59 24q13 0 25 -4l217 -428l-19 -18q-37 20 -87 60t-99.5 90.5t-84 109t-34.5 104.5z" />
<glyph unicode="&#x1e82;" horiz-adv-x="2201" d="M41 1374v60q122 -7 278 -7q76 0 148.5 1.5t107.5 3.5l35 2v-60l-41 -10q-55 -13 -82.5 -40t-27.5 -79q0 -13 12 -55l299 -916l297 961q6 18 6 47q0 35 -22.5 55t-73.5 27l-68 10v60q117 -7 244 -7h64q-1 -61 32 -165l310 -992l294 951q15 51 15 69q0 31 -20 49t-68 25 l-72 10v60q117 -7 238 -7q54 0 107.5 1.5t80.5 3.5l27 2v-60l-41 -10q-57 -15 -102 -67t-72 -130l-408 -1192l-65 -8l-361 1082l-352 -1074l-66 -8l-440 1268q-25 69 -53.5 94.5t-91.5 34.5zM1102 1587l153 311q15 5 25 5q33 0 54.5 -24t21.5 -62q0 -50 -44 -105.5 t-96.5 -91.5t-95.5 -51z" />
<glyph unicode="&#x1e83;" horiz-adv-x="1624" d="M20 866v56q132 -7 222 -7l219 7v-56l-41 -8q-70 -14 -70 -65q0 -19 6 -37l189 -553l211 559q10 33 10 49q0 33 -35 43l-39 12v56q66 -4 101 -4h86q18 -68 78.5 -247t111.5 -323l51 -145l228 567q8 20 8 35q0 40 -60 51l-61 10v56q90 -7 217 -7q35 0 73 1.5t59 3.5l20 2 v-56l-39 -6q-61 -10 -96 -48t-64 -110l-297 -735h-72l-239 656l-265 -656h-71l-281 762q-25 69 -48.5 94.5t-70.5 34.5zM754 1073l217 428q12 4 24 4q36 0 59 -24t23 -62q0 -46 -34.5 -104.5t-84 -109t-99.5 -90.5t-87 -60z" />
<glyph unicode="&#x1e84;" horiz-adv-x="2201" d="M41 1374v60q122 -7 278 -7q76 0 148.5 1.5t107.5 3.5l35 2v-60l-41 -10q-55 -13 -82.5 -40t-27.5 -79q0 -13 12 -55l299 -916l297 961q6 18 6 47q0 35 -22.5 55t-73.5 27l-68 10v60q117 -7 244 -7h64q-1 -61 32 -165l310 -992l294 951q15 51 15 69q0 31 -20 49t-68 25 l-72 10v60q117 -7 238 -7q54 0 107.5 1.5t80.5 3.5l27 2v-60l-41 -10q-57 -15 -102 -67t-72 -130l-408 -1192l-65 -8l-361 1082l-352 -1074l-66 -8l-440 1268q-25 69 -53.5 94.5t-91.5 34.5zM786 1731q0 43 32.5 74.5t76.5 31.5q43 0 74.5 -31.5t31.5 -74.5t-32 -76t-74 -33 q-44 0 -76.5 33t-32.5 76zM1196 1731q0 43 32 74.5t75 31.5q44 0 76 -31.5t32 -74.5t-32 -76t-76 -33q-43 0 -75 33t-32 76z" />
<glyph unicode="&#x1e85;" horiz-adv-x="1624" d="M20 866v56q132 -7 222 -7l219 7v-56l-41 -8q-70 -14 -70 -65q0 -19 6 -37l189 -553l211 559q10 33 10 49q0 33 -35 43l-39 12v56q66 -4 101 -4h86q18 -68 78.5 -247t111.5 -323l51 -145l228 567q8 20 8 35q0 40 -60 51l-61 10v56q90 -7 217 -7q35 0 73 1.5t59 3.5l20 2 v-56l-39 -6q-61 -10 -96 -48t-64 -110l-297 -735h-72l-239 656l-265 -656h-71l-281 762q-25 69 -48.5 94.5t-70.5 34.5zM520 1247q0 43 32.5 75t76.5 32q43 0 74.5 -32t31.5 -75t-31.5 -75.5t-74.5 -32.5q-44 0 -76.5 32.5t-32.5 75.5zM899 1247q0 43 32 75t75 32 q44 0 76 -32t32 -75t-32 -75.5t-76 -32.5q-43 0 -75 32.5t-32 75.5z" />
<glyph unicode="&#x1ef2;" horiz-adv-x="1384" d="M41 1374v60q143 -7 258 -7l264 7v-60l-41 -10q-57 -14 -57 -74q0 -32 20 -73l281 -525l278 549q19 40 19 64q0 47 -76 59l-61 10v60q127 -7 225 -7q53 0 101 1.5t70 3.5l21 2v-60l-40 -10q-62 -15 -96.5 -41t-61.5 -78l-342 -643v-399q0 -68 27 -96t92 -37l67 -11v-59 q-129 6 -289 6l-280 -6v59l53 11q133 24 133 200v332l-364 672q-24 43 -52 63t-81 27zM582 1817q0 38 21 62t54 24q10 0 25 -5l154 -311l-19 -18q-83 31 -159 102t-76 146z" />
<glyph unicode="&#x1ef3;" horiz-adv-x="1060" d="M-37 -315q0 37 29 65.5t82 28.5q24 0 32 -4q-4 -12 -4 -23q0 -80 93 -80q150 0 223 185l51 127l-264 747q-23 67 -51 93.5t-70 33.5l-55 8v56q155 -7 247 -7l207 7v-56l-51 -8q-61 -9 -61 -47q0 -15 4 -29l182 -589l225 577q11 33 11 39q0 40 -54 49l-55 8v56 q86 -7 195 -7q40 0 79.5 1.5t58.5 3.5l19 2v-56l-30 -6q-49 -10 -82.5 -38t-57.5 -85l-383 -907q-57 -136 -136 -210.5t-195 -74.5q-100 0 -144.5 41.5t-44.5 98.5zM303 1419q0 38 23 62t59 24q13 0 25 -4l217 -428l-19 -18q-37 20 -87 60t-99.5 90.5t-84 109t-34.5 104.5z " />
<glyph unicode="&#x2000;" horiz-adv-x="1099" />
<glyph unicode="&#x2001;" horiz-adv-x="2198" />
<glyph unicode="&#x2002;" horiz-adv-x="1099" />
<glyph unicode="&#x2003;" horiz-adv-x="2198" />
<glyph unicode="&#x2004;" horiz-adv-x="732" />
<glyph unicode="&#x2005;" horiz-adv-x="549" />
<glyph unicode="&#x2006;" horiz-adv-x="366" />
<glyph unicode="&#x2007;" horiz-adv-x="366" />
<glyph unicode="&#x2008;" horiz-adv-x="274" />
<glyph unicode="&#x2009;" horiz-adv-x="439" />
<glyph unicode="&#x200a;" horiz-adv-x="122" />
<glyph unicode="&#x2010;" horiz-adv-x="729" d="M72 479q91 71 225 134t254 63q53 0 79.5 -25.5t26.5 -66.5q0 -17 -4 -25l-557 -115z" />
<glyph unicode="&#x2011;" horiz-adv-x="729" d="M72 479q91 71 225 134t254 63q53 0 79.5 -25.5t26.5 -66.5q0 -17 -4 -25l-557 -115z" />
<glyph unicode="&#x2012;" horiz-adv-x="729" d="M72 479q91 71 225 134t254 63q53 0 79.5 -25.5t26.5 -66.5q0 -17 -4 -25l-557 -115z" />
<glyph unicode="&#x2013;" horiz-adv-x="1253" d="M111 541v110h1032v-110h-1032z" />
<glyph unicode="&#x2014;" horiz-adv-x="2269" d="M111 541v110h2048v-110h-2048z" />
<glyph unicode="&#x2018;" horiz-adv-x="481" d="M80 1255q0 144 90.5 242t216.5 125l12 -31q-77 -29 -123.5 -90.5t-46.5 -132.5q0 -114 103 -158q0 -55 -33 -91t-86 -36q-60 0 -96.5 46t-36.5 126z" />
<glyph unicode="&#x2019;" horiz-adv-x="481" d="M82 1077q77 29 123.5 90.5t46.5 132.5q0 114 -102 158q0 55 32.5 91t85.5 36q60 0 96.5 -46t36.5 -126q0 -144 -90 -241.5t-217 -124.5z" />
<glyph unicode="&#x201a;" horiz-adv-x="589" d="M92 -295q77 29 123.5 90.5t46.5 132.5q0 114 -102 158q0 55 33 91t86 36q60 0 96.5 -46t36.5 -126q0 -144 -90.5 -242t-217.5 -125z" />
<glyph unicode="&#x201c;" horiz-adv-x="866" d="M80 1255q0 144 90.5 242t216.5 125l12 -31q-77 -29 -123.5 -90.5t-46.5 -132.5q0 -114 103 -158q0 -55 -33 -91t-86 -36q-60 0 -96.5 46t-36.5 126zM465 1255q0 144 90.5 242t216.5 125l12 -31q-77 -29 -123.5 -90.5t-46.5 -132.5q0 -114 103 -158q0 -55 -33 -91t-86 -36 q-60 0 -96.5 46t-36.5 126z" />
<glyph unicode="&#x201d;" horiz-adv-x="866" d="M82 1077q77 29 123.5 90.5t46.5 132.5q0 114 -102 158q0 55 32.5 91t85.5 36q60 0 96.5 -46t36.5 -126q0 -144 -90 -241.5t-217 -124.5zM467 1077q77 29 123.5 90.5t46.5 132.5q0 114 -102 158q0 55 32.5 91t85.5 36q60 0 96.5 -46t36.5 -126q0 -144 -90 -241.5 t-217 -124.5z" />
<glyph unicode="&#x201e;" horiz-adv-x="974" d="M92 -295q77 29 123.5 90.5t46.5 132.5q0 114 -102 158q0 55 33 91t86 36q60 0 96.5 -46t36.5 -126q0 -144 -90.5 -242t-217.5 -125zM477 -295q77 29 123.5 90.5t46.5 132.5q0 114 -102 158q0 55 33 91t86 36q60 0 96.5 -46t36.5 -126q0 -144 -90.5 -242t-217.5 -125z" />
<glyph unicode="&#x2020;" horiz-adv-x="1243" d="M121 864q0 43 38 62.5t89 19.5q50 0 162.5 -30.5t167.5 -30.5h12v16q0 61 -46 212t-46 204q0 66 31 105.5t92 39.5t91.5 -39.5t30.5 -105.5q0 -53 -46 -204t-46 -212v-16h13q55 0 167 30.5t162 30.5q51 0 89 -19.5t38 -62.5q0 -25 -12.5 -43t-34 -26t-41 -11.5 t-41.5 -3.5q-49 0 -161 33t-166 33h-13q-6 -58 -6 -119q0 -135 115 -281q-115 -146 -115 -280v-559h-49v559q0 134 -115 280q115 146 115 281l-6 119h-12q-54 0 -166.5 -33t-161.5 -33q-22 0 -41.5 3.5t-41 11.5t-34 26t-12.5 43z" />
<glyph unicode="&#x2021;" horiz-adv-x="1241" d="M121 199q0 25 12.5 43t34 26t41 11.5t41.5 3.5q49 0 161.5 -32t166.5 -32h12q4 33 4 68q0 65 -32.5 130t-80.5 113q113 134 113 246l-4 70h-12q-54 0 -166.5 -33t-161.5 -33q-22 0 -41.5 3.5t-41 11.5t-34 26t-12.5 43q0 43 38 62.5t89 19.5q50 0 162.5 -30.5 t167.5 -30.5h12v16q0 61 -46 212t-46 204q0 66 30.5 105.5t92.5 39.5t92 -39t30 -106q0 -53 -46 -204t-46 -212v-16h13q55 0 167 30.5t162 30.5q51 0 89 -19.5t38 -62.5q0 -25 -12.5 -43t-34 -26t-41 -11.5t-41.5 -3.5q-49 0 -161 33t-166 33h-13q-4 -33 -4 -70 q0 -112 113 -246q-48 -48 -80.5 -113t-32.5 -130l4 -68h13q54 0 166 32t161 32q22 0 41.5 -3.5t41 -11.5t34 -26t12.5 -43q0 -43 -37.5 -61.5t-89.5 -18.5q-50 0 -162 29.5t-167 29.5h-13v-16q0 -59 46 -207t46 -203q0 -64 -29 -104.5t-93 -40.5q-62 0 -92.5 41.5 t-30.5 103.5q0 55 46 203t46 207v16h-12q-55 0 -167.5 -29.5t-162.5 -29.5q-52 0 -89.5 18.5t-37.5 61.5z" />
<glyph unicode="&#x2022;" horiz-adv-x="1024" d="M154 514q0 149 104.5 253.5t253.5 104.5t253.5 -104.5t104.5 -253.5q0 -148 -104.5 -253t-253.5 -105t-253.5 105t-104.5 253z" />
<glyph unicode="&#x202f;" horiz-adv-x="439" />
<glyph unicode="&#x2030;" horiz-adv-x="2285" d="M72 975q0 89 37 165.5t114 126.5t178 50q132 0 210.5 -89t78.5 -222q0 -62 -19.5 -121t-57.5 -110t-103.5 -82t-149.5 -31q-123 0 -205.5 85t-82.5 228zM225 999q0 -117 49.5 -190.5t118.5 -73.5q67 0 105.5 65.5t38.5 178.5q0 103 -46 183.5t-124 80.5q-72 0 -107 -68 t-35 -176zM307 -51q327 518 436 694l392 657h131q-322 -516 -428 -690l-398 -661h-133zM860 242q0 89 37.5 165.5t114.5 126.5t178 50q131 0 210 -89.5t79 -222.5q0 -62 -19.5 -121t-57.5 -110t-103.5 -82t-149.5 -31q-123 0 -206 85.5t-83 228.5zM1014 266 q0 -117 49.5 -190.5t118.5 -73.5q67 0 105 65.5t38 178.5q0 103 -46 183.5t-124 80.5q-72 0 -106.5 -68t-34.5 -176zM1595 242q0 89 37.5 165.5t114.5 126.5t178 50q131 0 210 -89.5t79 -222.5q0 -62 -19.5 -121t-57.5 -110t-103.5 -82t-149.5 -31q-123 0 -206 85.5 t-83 228.5zM1749 266q0 -117 49.5 -190.5t118.5 -73.5q67 0 105 65.5t38 178.5q0 103 -46 183.5t-124 80.5q-72 0 -106.5 -68t-34.5 -176z" />
<glyph unicode="&#x2039;" horiz-adv-x="696" d="M137 485l322 451l82 -105l-299 -342q50 -35 95 -71t100.5 -88t88.5 -108t33 -105q0 -40 -27.5 -67t-56.5 -27z" />
<glyph unicode="&#x203a;" horiz-adv-x="696" d="M137 842q0 40 27.5 67t56.5 27l338 -463l-321 -450l-82 104l299 342q-39 27 -74 53.5t-82 68.5t-80.5 80.5t-57.5 84.5t-24 86z" />
<glyph unicode="&#x2044;" horiz-adv-x="815" d="M-47 -139q116 237 389 826t420 927l100 -45q-190 -382 -445.5 -942t-361.5 -813z" />
<glyph unicode="&#x205f;" horiz-adv-x="549" />
<glyph unicode="&#x2070;" horiz-adv-x="845" d="M68 1069q0 205 98 336t276 131q142 0 239 -116.5t97 -311.5q0 -203 -98.5 -336t-273.5 -133q-142 0 -240 117t-98 313zM217 1104q0 -175 65 -285t154 -110q94 0 143.5 103t49.5 261q0 174 -67 285.5t-152 111.5q-63 0 -107.5 -51t-65 -131.5t-20.5 -183.5z" />
<glyph unicode="&#x2074;" horiz-adv-x="780" d="M49 926l215 288q76 102 76 203q0 69 -27 103q31 16 66 16q48 0 78 -34.5t30 -78.5q0 -57 -36 -115.5t-113 -150.5l-154 -182h240v176l133 68v-244h174v-86h-174v-121q0 -37 49 -45l51 -10v-54h-329v52l47 12q26 6 37.5 20.5t11.5 44.5v101h-356z" />
<glyph unicode="&#x2075;" horiz-adv-x="704" d="M66 760q0 34 23 55t58 21q24 0 48 -9q-7 -12 -7 -36q0 -36 29.5 -61t77.5 -25q88 0 142.5 61t54.5 152q0 92 -58.5 146t-148.5 54q-36 0 -67 -7t-44 -14l-14 -7l-25 6l33 426h307q48 0 74 17.5t45 62.5l31 -5l-25 -194h-371l-16 -186q40 8 92 8q162 0 249 -78.5 t87 -200.5q0 -141 -107 -224t-258 -83q-97 0 -153.5 34t-56.5 87z" />
<glyph unicode="&#x2076;" d="M68 971q0 100 34.5 190t91.5 155.5t130.5 116.5t150.5 81t154 42l20 -47q-178 -47 -286.5 -154t-131.5 -255q23 6 98.5 36.5t123.5 30.5q101 0 175 -67.5t74 -177.5q0 -117 -90.5 -200t-244.5 -83q-127 0 -213 90.5t-86 241.5zM221 963q0 -109 50 -188t132 -79 q70 0 110 59t40 140q0 78 -44 135t-116 57q-32 0 -92 -21t-76 -24q-4 -27 -4 -79z" />
<glyph unicode="&#x2077;" horiz-adv-x="731" d="M53 1305l51 217h555l17 -25l-207 -358q-117 -201 -117 -338q0 -44 6 -80.5t12 -50.5l5 -15q-28 -16 -66 -16q-56 0 -90.5 37.5t-34.5 97.5q0 62 31.5 130.5t106.5 178.5l225 334l-334 -20q-48 -3 -78 -29.5t-39 -69.5z" />
<glyph unicode="&#x2078;" horiz-adv-x="692" d="M68 848q0 43 18.5 80t41 58t60.5 54t58 54q-91 65 -125.5 109t-34.5 114q0 99 78.5 159t202.5 60q108 0 183 -54t75 -141q0 -48 -19 -84.5t-42 -54.5t-56 -43.5t-49 -44.5q19 -11 42 -28.5t55 -48t52.5 -72t20.5 -84.5q0 -61 -27.5 -109t-71 -76t-92 -42.5t-96.5 -14.5 q-115 0 -194.5 56t-79.5 153zM207 848q0 -64 38 -105t95 -41q59 0 98 38t39 96q0 31 -18 65.5t-43.5 61.5t-51 49.5t-43.5 34.5l-18 12q-9 -14 -28 -40.5t-27.5 -40.5t-20 -36t-16 -45t-4.5 -49zM233 1348q0 -60 42.5 -105.5t127.5 -97.5q31 38 44.5 58.5t24.5 55t11 78.5 q0 58 -31.5 98t-89.5 40q-56 0 -92.5 -35.5t-36.5 -91.5z" />
<glyph unicode="&#x2079;" d="M68 1253q0 117 90.5 200t244.5 83q127 0 213 -90.5t86 -241.5q0 -100 -34.5 -190t-91.5 -155.5t-130.5 -117t-150.5 -81.5t-154 -42l-20 48q178 47 286.5 154t131.5 255q-23 -6 -98.5 -36.5t-123.5 -30.5q-101 0 -175 67.5t-74 177.5zM217 1280q0 -78 44 -135.5 t116 -57.5q32 0 92 21t76 25q4 27 4 79q0 109 -50 188t-132 79q-70 0 -110 -59t-40 -140z" />
<glyph unicode="&#x207f;" horiz-adv-x="933" d="M41 594v47l45 6q38 6 63 36t25 75v383q0 55 -26.5 76.5t-96.5 21.5l-10 41q68 6 136.5 25t102.5 35l35 16v-121q11 3 40 23.5t59.5 41.5t76 38.5t89.5 17.5q105 0 160 -60t55 -155v-396q0 -57 12 -74.5t53 -23.5l51 -6v-47q-108 4 -180 4l-196 -4v47l34 6q38 8 62 37.5 t24 73.5v360q0 66 -33 100.5t-96 34.5q-50 0 -120 -32t-91 -35v-441q0 -58 12 -75.5t52 -22.5l51 -6v-47q-112 4 -186 4z" />
<glyph unicode="&#x2080;" horiz-adv-x="845" d="M68 143q0 205 98 336t276 131q142 0 239 -116.5t97 -311.5q0 -203 -98.5 -336t-273.5 -133q-142 0 -240 117t-98 313zM217 178q0 -175 65 -285t154 -110q94 0 143.5 103t49.5 261q0 175 -67 286.5t-152 111.5q-63 0 -107.5 -51t-65 -132t-20.5 -184z" />
<glyph unicode="&#x2081;" horiz-adv-x="565" d="M59 487q0 14 13 27q64 10 153.5 40.5t143.5 59.5l22 -4v-751q0 -31 14.5 -44t49.5 -18l65 -10v-53q-103 4 -201 4l-210 -4v53l57 10q90 12 90 119v573q-67 -45 -139 -45q-27 0 -42.5 12.5t-15.5 30.5z" />
<glyph unicode="&#x2082;" horiz-adv-x="731" d="M39 -231l199 190q62 59 112 118.5t93.5 142t43.5 149.5q0 66 -40 114.5t-115 48.5q-55 0 -86 -29t-31 -71q0 -24 8 -45q-36 -12 -57 -12q-40 0 -63 20t-23 54q0 60 74 110.5t200 50.5q133 0 208 -64t75 -167q0 -45 -15.5 -92t-48.5 -94t-62.5 -84t-80.5 -84.5 t-77.5 -70.5t-76.5 -65l-51 -43l312 11q82 2 114 96l39 -4l-51 -215h-588z" />
<glyph unicode="&#x2083;" horiz-adv-x="675" d="M63 -178q0 32 24 52t58 20q24 0 48 -9q-7 -16 -7 -32q0 -34 24 -54t66 -20q80 0 130.5 54.5t50.5 135.5q0 94 -74.5 143.5t-194.5 49.5l-12 51q240 65 240 215q0 42 -27 73t-78 31q-45 0 -71.5 -29t-26.5 -71q0 -18 10 -45q-46 -12 -57 -12q-40 0 -64 20t-24 54 q0 61 69.5 111t194.5 50q100 0 162.5 -50t62.5 -120q0 -77 -54 -129.5t-144 -79.5l2 -10q103 -14 170 -76t67 -153q0 -130 -94 -204.5t-252 -74.5q-84 0 -141.5 31t-57.5 78z" />
<glyph unicode="&#x2084;" horiz-adv-x="731" d="M49 0l215 289q76 102 76 203q0 68 -27 102q31 16 66 16q49 0 78.5 -34t29.5 -78q0 -57 -36 -116.5t-113 -150.5l-154 -182h240v176l133 68v-244h174v-86h-174v-121q0 -37 49 -45l51 -10v-53h-329v51l47 12q26 6 37.5 21t11.5 45v100h-356z" />
<glyph unicode="&#x2085;" horiz-adv-x="704" d="M66 -166q0 34 23 55t58 21q27 0 48 -8q-7 -12 -7 -37q0 -36 29.5 -61t77.5 -25q88 0 142.5 61t54.5 152q0 92 -58.5 146.5t-148.5 54.5q-36 0 -67 -7.5t-44 -14.5l-14 -7l-25 6l33 426h307q48 0 74 17.5t45 62.5l31 -4l-25 -195h-371l-16 -186q40 8 92 8q162 0 249 -78.5 t87 -200.5q0 -141 -107 -224t-258 -83q-97 0 -153.5 34t-56.5 87z" />
<glyph unicode="&#x2086;" d="M68 45q0 100 34.5 190t91.5 155.5t130.5 117t150.5 81.5t154 42l20 -47q-178 -47 -286.5 -154t-131.5 -256q24 6 99 37t123 31q101 0 175 -68t74 -178q0 -117 -90.5 -200t-244.5 -83q-127 0 -213 90.5t-86 241.5zM221 37q0 -109 50 -187.5t132 -78.5q70 0 110 59t40 139 q0 78 -44 135.5t-116 57.5q-32 0 -92 -21t-76 -24q-4 -27 -4 -80z" />
<glyph unicode="&#x2087;" horiz-adv-x="731" d="M53 379l51 217h555l17 -25l-207 -358q-117 -201 -117 -338q0 -44 6 -80.5t12 -50.5l5 -14q-30 -17 -66 -17q-56 0 -90.5 37.5t-34.5 97.5q0 62 32 131t106 179l225 334l-334 -21q-48 -3 -78 -29t-39 -69z" />
<glyph unicode="&#x2088;" horiz-adv-x="692" d="M68 -78q0 43 18.5 80t41 58t60.5 54t58 54q-91 65 -125.5 109t-34.5 114q0 99 78.5 159t202.5 60q108 0 183 -53.5t75 -140.5q0 -48 -19 -84.5t-42 -55t-56 -44t-49 -44.5q170 -102 170 -233q0 -61 -27.5 -109t-71 -76t-92 -42.5t-96.5 -14.5q-115 0 -194.5 56t-79.5 153 zM207 -78q0 -64 37.5 -104.5t95.5 -40.5q59 0 98 37.5t39 95.5q0 31 -18 65.5t-43.5 61.5t-51 49.5t-43.5 34.5l-18 12q-9 -14 -28 -40.5t-27.5 -40.5t-20 -36t-16 -45t-4.5 -49zM233 422q0 -60 42.5 -105.5t127.5 -97.5q45 55 62.5 92.5t17.5 100.5q0 58 -31.5 97.5 t-89.5 39.5q-56 0 -92.5 -35.5t-36.5 -91.5z" />
<glyph unicode="&#x2089;" d="M68 328q0 117 90.5 199.5t244.5 82.5q127 0 213 -90t86 -241q0 -100 -34.5 -190t-91.5 -155.5t-130.5 -117t-150.5 -81.5t-154 -42l-20 47q178 47 286.5 154t131.5 256q-24 -6 -99 -37t-123 -31q-101 0 -175 68t-74 178zM217 354q0 -78 44 -135t116 -57q32 0 92 21t76 24 q4 27 4 80q0 109 -50 187.5t-132 78.5q-70 0 -110 -59t-40 -140z" />
<glyph unicode="&#x20ac;" horiz-adv-x="1380" d="M86 469l10 94q74 -4 144 -4q0 71 10 146h-137l10 94q62 -4 147 -4q28 98 80.5 180.5t128.5 146t181 99.5t229 36q178 0 291.5 -65t113.5 -152q0 -50 -29.5 -80t-78.5 -30q-29 0 -56 8q-52 238 -260 238q-145 0 -247.5 -103.5t-149.5 -279.5q148 0 267.5 1.5t164.5 3.5 l45 1l-12 -94q-68 2 -477 2q-6 -55 -6 -150q141 0 254.5 1.5t156.5 3.5l43 1l-14 -94q-165 0 -432 2q11 -86 39 -151t66.5 -106.5t90.5 -67.5t106.5 -36t119.5 -10q99 0 184 27t178 80l23 -37q-186 -203 -475 -203q-106 0 -196.5 28t-166.5 85.5t-125.5 156.5t-62.5 232 h-158z" />
<glyph unicode="&#x2122;" horiz-adv-x="1316" d="M55 1317l8 125h17q13 -8 31 -8h354q7 0 13 1t9 2t5 2t3 2l1 1h18l-10 -129l-19 2q0 37 -24.5 56.5t-65.5 19.5h-63v-373q0 -33 10 -45.5t33 -14.5l22 -2v-32q-61 2 -110 2l-117 -2v32l18 2q50 5 50 97v336h-52q-102 0 -114 -78zM528 924v32l17 2q28 3 46 31.5t23 71.5 l25 270q3 58 -39 66l-29 4v33q81 -7 142 -7q0 -31 12 -55l158 -348l139 338q7 17 11 33.5t5 24.5v7q66 0 166 7v-33l-26 -4q-36 -9 -33 -49l29 -338q6 -47 55 -52l22 -2v-32q-47 2 -135 2l-115 -2v32l21 2q55 6 49 95l-27 272l-161 -401l-29 -11l-176 404l-23 -281 q-2 -36 7 -55.5t40 -22.5l23 -2v-32q-52 2 -109 2z" />
<glyph unicode="&#x2153;" horiz-adv-x="1624" d="M59 1339q0 14 13 27q64 10 153.5 40.5t143.5 59.5l22 -4v-751q0 -31 14.5 -44t49.5 -18l65 -10v-53q-103 4 -201 4l-210 -4v53l57 10q90 12 90 119v573q-67 -45 -139 -45q-27 0 -42.5 12.5t-15.5 30.5zM346 -139q116 237 389 826t420 927l100 -45q-189 -381 -444 -940 t-362 -815zM1012 88q0 32 24 52t58 20q26 0 47 -8q-6 -14 -6 -33q0 -34 24 -54t66 -20q80 0 130 55t50 136q0 93 -74 142.5t-194 49.5l-13 51q240 65 240 215q0 42 -27 73.5t-77 31.5q-45 0 -72 -29.5t-27 -71.5q0 -18 10 -45q-46 -12 -57 -12q-40 0 -64 20t-24 54 q0 61 69.5 111.5t194.5 50.5q100 0 163 -50t63 -120q0 -77 -54.5 -129.5t-144.5 -79.5l2 -11q103 -14 170 -76t67 -153q0 -129 -94 -203.5t-252 -74.5q-84 0 -141 30.5t-57 77.5z" />
<glyph unicode="&#x2154;" horiz-adv-x="1728" d="M39 621l199 190q62 59 112 118.5t93.5 142t43.5 149.5q0 66 -40 114.5t-115 48.5q-55 0 -86 -29t-31 -71q0 -24 8 -45q-36 -12 -57 -12q-40 0 -63 19.5t-23 53.5q0 60 74 111t200 51q133 0 208 -64t75 -167q0 -45 -15.5 -92t-48.5 -94t-62.5 -84t-80.5 -84.5t-77.5 -70.5 t-76.5 -65l-51 -43l312 11q82 2 114 96l39 -4l-51 -215h-588zM457 -139q116 237 389 826t420 927l100 -45q-190 -382 -445.5 -942t-361.5 -813zM1116 88q0 32 24 52t58 20q26 0 47 -8q-6 -14 -6 -33q0 -34 24 -54t66 -20q80 0 130 55t50 136q0 93 -74 142.5t-194 49.5 l-12 51q239 64 239 215q0 42 -27 73.5t-77 31.5q-45 0 -71.5 -29.5t-26.5 -71.5q0 -18 10 -45q-46 -12 -57 -12q-40 0 -64.5 20t-24.5 54q0 61 70 111.5t195 50.5q100 0 162.5 -50t62.5 -120q0 -77 -54.5 -129.5t-144.5 -79.5l2 -11q103 -14 170.5 -76t67.5 -153 q0 -129 -94 -203.5t-252 -74.5q-84 0 -141.5 30.5t-57.5 77.5z" />
<glyph unicode="&#x215b;" horiz-adv-x="1626" d="M59 1339q0 14 13 27q64 10 153.5 40.5t143.5 59.5l22 -4v-751q0 -31 14.5 -44t49.5 -18l65 -10v-53q-103 4 -201 4l-210 -4v53l57 10q90 12 90 119v573q-67 -45 -139 -45q-27 0 -42.5 12.5t-15.5 30.5zM346 -139q116 237 389 826t420 927l100 -45q-189 -381 -444 -940 t-362 -815zM1001 188q0 43 19 80t41.5 58.5t60.5 53.5t58 54q-91 65 -125.5 109t-34.5 114q0 99 78 159.5t202 60.5q108 0 183.5 -54t75.5 -141q0 -48 -19 -84.5t-42 -54.5t-56 -43.5t-49 -44.5q170 -102 170 -234q0 -61 -27.5 -109t-71 -75.5t-92 -42t-96.5 -14.5 q-115 0 -195 55.5t-80 152.5zM1141 188q0 -64 37.5 -104.5t95.5 -40.5q59 0 98 37.5t39 95.5q0 31 -18 65.5t-43.5 61.5t-51 49.5t-43.5 34.5l-18 12q-9 -14 -28 -40.5t-27.5 -40.5t-20 -36t-16 -45t-4.5 -49zM1167 688q0 -60 42.5 -105.5t127.5 -97.5q45 55 62.5 92.5 t17.5 100.5q0 58 -31.5 97.5t-89.5 39.5q-56 0 -92.5 -35.5t-36.5 -91.5z" />
<glyph unicode="&#x215c;" horiz-adv-x="1636" d="M63 674q0 32 23.5 51.5t58.5 19.5q27 0 48 -8q-7 -16 -7 -32q0 -34 24 -54t66 -20q80 0 130.5 54.5t50.5 135.5q0 94 -74.5 143.5t-194.5 49.5l-12 51q240 65 240 215q0 42 -27 73t-78 31q-45 0 -71.5 -29t-26.5 -71q0 -18 10 -45q-46 -12 -57 -12q-40 0 -64 19.5 t-24 53.5q0 61 69.5 111.5t194.5 50.5q100 0 162.5 -50t62.5 -120q0 -77 -54 -129.5t-144 -79.5l2 -10q103 -14 170 -76t67 -153q0 -130 -94 -204.5t-252 -74.5q-84 0 -141.5 31t-57.5 78zM356 -139q116 237 389 826t420 927l101 -45q-190 -382 -445.5 -942t-361.5 -813z M1012 188q0 43 18.5 80t41 58t60.5 54t58 54q-91 65 -125.5 109t-34.5 114q0 99 78.5 159.5t202.5 60.5q108 0 183 -54t75 -141q0 -48 -19 -84.5t-42 -54.5t-56 -43.5t-49 -44.5q170 -102 170 -234q0 -61 -27.5 -109t-71 -75.5t-92 -42t-96.5 -14.5q-115 0 -194.5 55.5 t-79.5 152.5zM1151 188q0 -64 37.5 -104.5t95.5 -40.5q59 0 98 37.5t39 95.5q0 31 -18 65.5t-43.5 61.5t-51 49.5t-43.5 34.5l-18 12q-9 -14 -28 -40.5t-27.5 -40.5t-20 -36t-16 -45t-4.5 -49zM1178 688q0 -60 42.5 -105.5t127.5 -97.5q44 55 61.5 92.5t17.5 100.5 q0 58 -31 97.5t-89 39.5q-56 0 -92.5 -35.5t-36.5 -91.5z" />
<glyph unicode="&#x215d;" horiz-adv-x="1634" d="M66 686q0 34 23 55t58 21q27 0 48 -8q-7 -12 -7 -37q0 -36 29.5 -61t77.5 -25q88 0 142.5 61t54.5 152q0 92 -58.5 146t-148.5 54q-36 0 -67 -7t-44 -14l-14 -7l-25 6l33 426h307q48 0 74 17.5t45 62.5l31 -4l-25 -195h-371l-16 -186q40 8 92 8q162 0 249 -78.5 t87 -200.5q0 -141 -107 -224t-258 -83q-97 0 -153.5 34t-56.5 87zM356 -139q116 237 389 826t420 927l101 -45q-190 -382 -445.5 -942t-361.5 -813zM1012 188q0 43 18.5 80t41 58t60.5 54t58 54q-91 65 -125.5 109t-34.5 114q0 99 78.5 159.5t202.5 60.5q108 0 183 -54 t75 -141q0 -48 -19 -84.5t-42 -54.5t-56 -43.5t-49 -44.5q170 -102 170 -234q0 -61 -27.5 -109t-71 -75.5t-92 -42t-96.5 -14.5q-115 0 -194.5 55.5t-79.5 152.5zM1151 188q0 -64 37.5 -104.5t95.5 -40.5q59 0 98 37.5t39 95.5q0 31 -18 65.5t-43.5 61.5t-51 49.5 t-43.5 34.5l-18 12q-9 -14 -28 -40.5t-27.5 -40.5t-20 -36t-16 -45t-4.5 -49zM1178 688q0 -60 42.5 -105.5t127.5 -97.5q44 55 61.5 92.5t17.5 100.5q0 58 -31 97.5t-89 39.5q-56 0 -92.5 -35.5t-36.5 -91.5z" />
<glyph unicode="&#x215e;" horiz-adv-x="1521" d="M53 1231l51 217h555l17 -25l-207 -358q-117 -201 -117 -338q0 -44 6 -80.5t12 -50.5l5 -14q-30 -17 -66 -17q-56 0 -90.5 37.5t-34.5 97.5q0 62 32 131t106 179l225 333l-334 -20q-48 -3 -78 -29t-39 -69zM242 -139q116 237 389 826t420 927l100 -45 q-190 -382 -445.5 -942t-361.5 -813zM897 188q0 43 18.5 80t41 58t60.5 54t58 54q-91 65 -125.5 109t-34.5 114q0 99 78.5 159.5t202.5 60.5q108 0 183 -54t75 -141q0 -48 -19 -84.5t-42 -54.5t-56 -43.5t-49 -44.5q170 -102 170 -234q0 -61 -27.5 -109t-71 -75.5t-92 -42 t-96.5 -14.5q-115 0 -194.5 55.5t-79.5 152.5zM1036 188q0 -64 37.5 -104.5t95.5 -40.5q59 0 98.5 37.5t39.5 95.5q0 31 -18 65.5t-43.5 61.5t-51 49.5t-43.5 34.5l-18 12q-10 -14 -28.5 -40.5t-27.5 -40.5t-20.5 -36t-16 -45t-4.5 -49zM1063 688q0 -60 42.5 -105.5 t127.5 -97.5q45 55 62.5 92.5t17.5 100.5q0 58 -31.5 97.5t-89.5 39.5q-56 0 -92.5 -35.5t-36.5 -91.5z" />
<glyph unicode="&#x2202;" horiz-adv-x="1040" d="M70 389q0 118 54.5 221t149.5 165.5t207 62.5q60 0 113.5 -17.5t83.5 -38.5t65.5 -47.5t55.5 -36.5q14 98 14 254q0 125 -41.5 231t-124 173t-190.5 67q-81 0 -136.5 -23.5t-103.5 -84.5q-21 2 -40 21t-19 50q0 36 24 63t62 42t78.5 22t80.5 7q113 0 208.5 -40.5 t161 -108.5t111 -158.5t66.5 -189.5t21 -202q0 -66 -7 -138.5t-24 -157t-42.5 -162.5t-66.5 -151t-92.5 -126.5t-123 -86t-154.5 -32.5q-175 0 -283 112.5t-108 309.5zM250 336q0 -64 19 -129t62.5 -114.5t102.5 -49.5q36 0 68.5 10t59 31.5t49 45.5t41.5 61t34 67.5 t28 76.5t22 76.5t18.5 78.5t14 72t11.5 67q-27 15 -79.5 54t-94 59t-88.5 20q-85 0 -147.5 -64t-91.5 -158.5t-29 -203.5z" />
<glyph unicode="&#x2206;" horiz-adv-x="1390" d="M68 59l596 1395l102 12l559 -1407l-33 -59h-1192zM209 102h905l-430 1153z" />
</font>
</defs>
</svg>
