<?xml version="1.0" standalone="no"?>
<!DOCTYPE svg PUBLIC "-//W3C//DTD SVG 1.1//EN" "http://www.w3.org/Graphics/SVG/1.1/DTD/svg11.dtd" >
<svg xmlns="http://www.w3.org/2000/svg">
<metadata></metadata>
<defs>
<font id="calendas_plusbold" horiz-adv-x="1193" >
<font-face units-per-em="2048" ascent="1536" descent="-512" />
<missing-glyph horiz-adv-x="512" />
<glyph unicode="&#x2e;&#x2e;&#x2e;" horiz-adv-x="1835" d="M135 115q0 62 42.5 104.5t105.5 42.5q61 0 104 -43t43 -104q0 -62 -43 -105t-104 -43q-63 0 -105.5 43t-42.5 105zM770 115q0 62 42.5 104.5t105.5 42.5q62 0 104.5 -43t42.5 -104q0 -62 -43 -105t-104 -43q-63 0 -105.5 43t-42.5 105zM1403 115q0 62 42 104.5t105 42.5 q62 0 105 -43t43 -104t-43 -104.5t-105 -43.5q-63 0 -105 43t-42 105z" />
<glyph unicode="ff" horiz-adv-x="1474" d="M45 0v68l37 6q55 9 89 42t34 85v608h-148l-10 61q113 37 158 74v35q0 121 41.5 217t115 157t170.5 92.5t211 31.5q82 0 162 -26t127 -67q67 74 157 113t191 39q111 0 185.5 -41t74.5 -113q0 -58 -49.5 -86.5t-101.5 -21.5q-16 60 -59 109t-103 49q-97 0 -138.5 -92.5 t-41.5 -264.5v-153h313v-125h-313v-613q0 -56 22 -78.5t72 -27.5l102 -10v-68q-192 6 -323 6l-277 -6v68l37 6q55 9 89 42t34 85v596h-459v-613q0 -54 26.5 -76.5t76.5 -29.5l78 -10v-68q-177 6 -308 6zM444 922h459v92q0 106 29 198q-24 66 -81.5 113t-148.5 47 q-116 0 -187 -84.5t-71 -240.5v-125z" />
<glyph unicode="fi" horiz-adv-x="1368" d="M45 0v68l37 6q55 9 89 42t34 85v608h-148l-10 61q113 37 158 74v51q0 124 44 227t120 171t176.5 105.5t214.5 37.5q139 0 231 -55t92 -144q0 -65 -44 -99t-117 -34q-69 0 -119 33q6 37 6 70q0 59 -29.5 92t-99.5 33q-111 0 -171 -96.5t-60 -260.5v-153h319 q87 0 185.5 7.5t154.5 14.5l55 8v-768q0 -56 15.5 -78t54.5 -28l61 -10v-68q-127 6 -260 6l-266 -6v68l41 6q52 8 80.5 41t28.5 86v475q0 58 -30 89.5t-89 31.5h-350v-613q0 -55 25 -77t77 -29l86 -10v-68q-184 6 -315 6z" />
<glyph unicode="fl" horiz-adv-x="1337" d="M45 0v68l37 6q55 9 89 42t34 85v608h-148l-10 61q113 37 158 74v51q0 124 46 227.5t123 171t175.5 105t206.5 37.5q74 0 135 -17.5t94 -41.5q44 11 88.5 26t66.5 24l23 9v-1352q0 -56 16 -78t54 -28l63 -10v-68q-129 6 -260 6l-268 -6v68l41 6q52 8 80.5 41t28.5 86v1030 q0 92 -54.5 146.5t-156.5 54.5q-120 0 -189 -95t-69 -262v-153h395v-125h-395v-613q0 -56 22 -78.5t72 -27.5l102 -10v-68q-192 6 -323 6z" />
<glyph unicode="ffi" horiz-adv-x="2066" d="M45 0v68l37 6q55 9 89 42t34 85v608h-148l-10 61q113 37 158 74v35q0 121 42 217t115.5 157t171 92.5t211.5 31.5q175 0 306 -101q77 77 182 118.5t225 41.5q139 0 231.5 -55t92.5 -144q0 -65 -44.5 -99t-117.5 -34q-69 0 -119 33q6 38 6 70q0 59 -29.5 92t-99.5 33 q-111 0 -171 -96.5t-60 -260.5v-153h319q87 0 186 7.5t154 14.5l56 8v-768q0 -56 15.5 -78t53.5 -28l62 -10v-68q-127 6 -260 6l-267 -6v68l41 6q52 8 80.5 41t28.5 86v475q0 58 -30 89.5t-89 31.5h-350v-613q0 -55 25 -77t77 -29l86 -10v-68q-184 6 -315 6l-277 -6v68l37 6 q55 9 89 42t34 85v596h-459v-613q0 -54 26.5 -76.5t76.5 -29.5l78 -10v-68q-177 6 -308 6zM444 922h459v73q0 103 31 191q-55 186 -219 186q-118 0 -194.5 -85.5t-76.5 -239.5v-125z" />
<glyph unicode="ffl" horiz-adv-x="2035" d="M45 0v68l37 6q55 9 89 42t34 85v608h-148l-10 61q113 37 158 74v35q0 121 42 217t115.5 157t171 92.5t211.5 31.5q175 0 306 -101q77 76 182.5 118t220.5 42q74 0 135 -17.5t94 -41.5q44 11 88.5 26t67.5 24l23 9v-1352q0 -56 16 -78t53 -28l64 -10v-68q-129 6 -260 6 l-269 -6v68l41 6q52 8 80.5 41t28.5 86v1030q0 92 -54.5 146.5t-156.5 54.5q-120 0 -189 -95t-69 -262v-153h395v-125h-395v-613q0 -56 22 -78.5t72 -27.5l102 -10v-68q-192 6 -323 6l-277 -6v68l37 6q55 9 89 42t34 85v596h-459v-613q0 -54 26.5 -76.5t76.5 -29.5l78 -10 v-68q-177 6 -308 6zM444 922h459v73q0 103 31 191q-56 186 -219 186q-118 0 -194.5 -85.5t-76.5 -239.5v-125z" />
<glyph unicode="Th" horiz-adv-x="2367" d="M53 1147l25 319h47q17 -32 84 -32h940q74 0 146 10.5t121.5 25.5t89 30t58.5 26l19 10v-733q26 4 64.5 29t74 51.5t91.5 48.5t114 22q128 0 197 -74t69 -198v-498q0 -56 16 -78t54 -28l64 -10v-68q-130 6 -261 6q-62 0 -123 -1.5t-91 -2.5l-31 -2v68l26 6q48 9 74.5 42 t26.5 85v444q0 75 -38.5 114.5t-113.5 39.5q-43 0 -116.5 -37t-96.5 -39v-539q0 -56 16 -78t54 -28l63 -10v-68q-129 6 -260 6l-268 -6v68l43 6q50 8 79 41t29 86v975q0 75 -34 113t-121 38h-359v-1104q0 -75 22.5 -101.5t92.5 -37.5l64 -10v-74q-183 8 -328 8 q-72 0 -150.5 -2t-121.5 -4l-42 -2v74l50 10q131 26 131 188v1055h-148q-107 0 -176 -43.5t-106 -146.5z" />
<glyph unicode="&#x164;h" horiz-adv-x="2367" d="M53 1147l25 319h47q17 -32 84 -32h940q74 0 146 10.5t121.5 25.5t89 30t58.5 26l19 10v-733q26 4 64.5 29t74 51.5t91.5 48.5t114 22q128 0 197 -74t69 -198v-498q0 -56 16 -78t54 -28l64 -10v-68q-130 6 -261 6q-62 0 -123 -1.5t-91 -2.5l-31 -2v68l26 6q48 9 74.5 42 t26.5 85v444q0 75 -38.5 114.5t-113.5 39.5q-43 0 -116.5 -37t-96.5 -39v-539q0 -56 16 -78t54 -28l63 -10v-68q-129 6 -260 6l-268 -6v68l43 6q50 8 79 41t29 86v975q0 75 -34 113t-121 38h-359v-1104q0 -75 22.5 -101.5t92.5 -37.5l64 -10v-74q-183 8 -328 8 q-72 0 -150.5 -2t-121.5 -4l-42 -2v74l50 10q131 26 131 188v1055h-148q-107 0 -176 -43.5t-106 -146.5zM332 1800l139 88l213 -262q16 60 52 116.5t92.5 98t117.5 41.5q51 0 73.5 -25.5t22.5 -58.5l-350 -280z" />
<glyph unicode="&#x162;h" horiz-adv-x="2367" d="M53 1147l25 319h47q17 -32 84 -32h940q74 0 146 10.5t121.5 25.5t89 30t58.5 26l19 10v-733q26 4 64.5 29t74 51.5t91.5 48.5t114 22q128 0 197 -74t69 -198v-498q0 -56 16 -78t54 -28l64 -10v-68q-130 6 -261 6q-62 0 -123 -1.5t-91 -2.5l-31 -2v68l26 6q48 9 74.5 42 t26.5 85v444q0 75 -38.5 114.5t-113.5 39.5q-43 0 -116.5 -37t-96.5 -39v-539q0 -56 16 -78t54 -28l63 -10v-68q-129 6 -260 6l-268 -6v68l43 6q50 8 79 41t29 86v975q0 75 -34 113t-121 38h-359v-1104q0 -75 22.5 -101.5t92.5 -37.5l64 -10v-74q-144 6 -277 8 q-17 -9 -35 -33t-18 -53q0 -23 17.5 -44t43 -38.5t51 -38t43 -52t17.5 -71.5q0 -72 -74 -119.5t-184 -47.5q-75 0 -126.5 30.5t-51.5 81.5q0 37 24.5 60.5t61.5 23.5q31 0 49 -12q-17 -24 -17 -49q0 -24 20.5 -43t61.5 -19q40 0 65 16t25 38t-15.5 41t-37 35t-43.5 34.5 t-37.5 47.5t-15.5 65q0 38 22.5 72t42.5 49t41 26l-295 -8v74l50 10q131 26 131 188v1055h-148q-107 0 -176 -43.5t-106 -146.5z" />
<glyph unicode="fj" horiz-adv-x="1347" d="M45 0v68l37 6q55 9 89 42t34 85v608h-148l-10 61q113 37 158 74v51q0 124 44 227t120 171t176.5 105.5t214.5 37.5q139 0 231 -55t92 -144q0 -65 -44 -99t-117 -34q-69 0 -119 33q6 37 6 70q0 59 -29.5 92t-99.5 33q-111 0 -171 -96.5t-60 -260.5v-153h319 q87 0 185.5 7.5t154.5 14.5l55 8v-811q0 -152 -31.5 -250t-105.5 -174q-33 -33 -80 -58.5t-86.5 -39.5t-87 -35t-78.5 -45l-41 55q25 23 92.5 70.5t102.5 93.5q72 95 72 281v645q0 59 -33 86t-101 27h-337v-613q0 -55 25 -77t77 -29l86 -10v-68q-184 6 -315 6z" />
<glyph unicode="ffj" horiz-adv-x="2045" d="M45 0v68l37 6q55 9 89 42t34 85v608h-148l-10 61q113 37 158 74v35q0 121 42 217t115.5 157t171 92.5t211.5 31.5q175 0 306 -101q77 77 182 118.5t225 41.5q139 0 231.5 -55t92.5 -144q0 -65 -44.5 -99t-117.5 -34q-69 0 -119 33q6 38 6 70q0 59 -29.5 92t-99.5 33 q-111 0 -171 -96.5t-60 -260.5v-153h319q87 0 186 7.5t154 14.5l56 8v-811q0 -152 -31.5 -250t-106.5 -174q-42 -42 -103.5 -70.5t-125.5 -53.5t-102 -54l-41 55q24 22 91.5 70t102.5 94q72 95 72 281v645q0 59 -32.5 86t-100.5 27h-338v-613q0 -55 25 -77t77 -29l86 -10 v-68q-184 6 -315 6l-277 -6v68l37 6q55 9 89 42t34 85v596h-459v-613q0 -54 26.5 -76.5t76.5 -29.5l78 -10v-68q-177 6 -308 6zM444 922h459v73q0 103 31 191q-56 186 -219 186q-118 0 -194.5 -85.5t-76.5 -239.5v-125z" />
<glyph unicode="fb" horiz-adv-x="1925" d="M45 0v68l37 6q55 9 89 42t34 85v608h-148l-10 61q113 37 158 74v51q0 124 46 227.5t123 171t175.5 105t206.5 37.5q74 0 135 -17.5t94 -41.5q72 16 178 59v-702q24 6 57.5 26.5t63 40.5t81 36.5t110.5 16.5q110 0 202 -62.5t144.5 -169.5t52.5 -233q0 -160 -75.5 -280.5 t-199 -181t-274.5 -60.5q-187 0 -303 58l-104 -84l-46 24q24 66 35 136t11 188v942q0 92 -54.5 146.5t-156.5 54.5q-120 0 -189 -95t-69 -262v-153h395v-125h-395v-613q0 -56 22 -78.5t72 -27.5l102 -10v-68q-192 6 -323 6zM1163 248q0 -182 183 -182q75 0 135.5 54.5 t92.5 140t32 181.5q0 161 -68 261t-201 100q-38 0 -96.5 -25.5t-77.5 -27.5v-502z" />
<glyph unicode="ffb" horiz-adv-x="2623" d="M45 0v68l37 6q55 9 89 42t34 85v608h-148l-10 61q113 37 158 74v35q0 121 42 217t115.5 157t171 92.5t211.5 31.5q175 0 308 -103q76 78 181 120t220 42q74 0 135 -17.5t94 -41.5q74 17 179 59v-702q24 6 57.5 26.5t63 40.5t80.5 36.5t110 16.5q110 0 202 -62.5 t144.5 -169.5t52.5 -233q0 -160 -75.5 -280.5t-199 -181t-274.5 -60.5q-187 0 -303 58l-104 -84l-45 24q24 65 34.5 135t10.5 189v942q0 92 -54.5 146.5t-156.5 54.5q-120 0 -189 -95t-69 -262v-153h395v-125h-395v-613q0 -56 22 -78.5t72 -27.5l102 -10v-68q-192 6 -323 6 l-277 -6v68l37 6q55 9 89 42t34 85v596h-459v-613q0 -54 26.5 -76.5t76.5 -29.5l78 -10v-68q-177 6 -308 6zM444 922h459v73q0 103 31 191q-56 186 -219 186q-118 0 -194.5 -85.5t-76.5 -239.5v-125zM1862 248q0 -182 182 -182q75 0 135.5 54.5t92.5 140t32 181.5 q0 161 -67.5 261t-200.5 100q-38 0 -96.5 -25.5t-77.5 -27.5v-502z" />
<glyph unicode="fh" horiz-adv-x="1947" d="M45 0v68l37 6q55 9 89 42t34 85v608h-148l-10 61q113 37 158 74v51q0 124 46 227.5t123 171t175.5 105t206.5 37.5q74 0 135 -17.5t94 -41.5q72 16 178 59v-733q26 4 64.5 29t74 51.5t91.5 48.5t114 22q128 0 197.5 -74t69.5 -198v-498q0 -56 16 -78t53 -28l64 -10v-68 q-129 6 -260 6q-62 0 -123.5 -1.5t-91.5 -2.5l-31 -2v68l26 6q48 9 74.5 42t26.5 85v444q0 75 -38.5 114.5t-113.5 39.5q-43 0 -116.5 -37t-96.5 -39v-539q0 -56 16 -78t54 -28l63 -10v-68q-129 6 -260 6l-268 -6v68l43 6q50 8 79.5 41t29.5 86v1030q0 92 -55.5 146.5 t-157.5 54.5q-120 0 -189 -95t-69 -262v-153h395v-125h-395v-613q0 -56 22 -78.5t72 -27.5l102 -10v-68q-192 6 -323 6z" />
<glyph unicode="ffh" horiz-adv-x="2646" d="M45 0v68l37 6q55 9 89 42t34 85v608h-148l-10 61q113 37 158 74v35q0 121 42 217t115.5 157t171 92.5t211.5 31.5q175 0 308 -103q76 78 181 120t220 42q74 0 135 -17.5t94 -41.5q74 17 179 59v-733q26 4 64.5 29t74 51.5t91.5 48.5t114 22q128 0 197 -74t69 -198v-498 q0 -56 16 -78t54 -28l63 -10v-68q-129 6 -260 6q-62 0 -123.5 -1.5t-91.5 -2.5l-31 -2v68l27 6q48 9 74 42t26 85v444q0 154 -151 154q-43 0 -116.5 -37t-96.5 -39v-539q0 -56 16 -78t53 -28l64 -10v-68q-129 6 -260 6l-269 -6v68l43 6q50 8 79.5 41t29.5 86v1030 q0 92 -55.5 146.5t-157.5 54.5q-120 0 -189 -95t-69 -262v-153h395v-125h-395v-613q0 -56 22 -78.5t72 -27.5l102 -10v-68q-192 6 -323 6l-277 -6v68l37 6q55 9 89 42t34 85v596h-459v-613q0 -54 26.5 -76.5t76.5 -29.5l78 -10v-68q-177 6 -308 6zM444 922h459v73 q0 103 31 191q-56 186 -219 186q-118 0 -194.5 -85.5t-76.5 -239.5v-125z" />
<glyph unicode="fk" horiz-adv-x="1925" d="M45 0v68l37 6q55 9 89 42t34 85v608h-148l-10 61q113 37 158 74v51q0 124 46 227.5t123 171t175.5 105t206.5 37.5q74 0 135 -17.5t94 -41.5q72 16 178 59v-985h80l123 174q23 35 23 57q0 56 -70 66l-43 6v68q105 -7 283 -7q88 0 158 1.5t96 3.5l26 2v-66l-72 -8 q-91 -9 -161 -38t-127 -103l-76 -99l215 -319q89 -133 158.5 -177t171.5 -44v-50q-89 -32 -193 -32q-131 0 -212.5 53.5t-147.5 163.5l-140 227q-16 26 -36.5 38.5t-55.5 12.5v-297q0 -56 16 -78t54 -28l63 -10v-68q-129 6 -260 6l-268 -6v68l43 6q50 8 79.5 41t29.5 86 v1030q0 92 -55.5 146.5t-157.5 54.5q-120 0 -189 -95t-69 -262v-153h395v-125h-395v-613q0 -56 22 -78.5t72 -27.5l102 -10v-68q-192 6 -323 6z" />
<glyph unicode="ffk" horiz-adv-x="2623" d="M45 0v68l37 6q55 9 89 42t34 85v608h-148l-10 61q113 37 158 74v35q0 121 42 217t115.5 157t171 92.5t211.5 31.5q175 0 308 -103q76 78 181 120t220 42q74 0 135 -17.5t94 -41.5q74 17 179 59v-985h80l122 174q23 35 23 57q0 56 -70 66l-43 6v68q105 -7 283 -7 q88 0 158 1.5t96 3.5l26 2v-66l-71 -8q-91 -9 -161.5 -38t-127.5 -103l-76 -99l215 -319q89 -133 158.5 -177t171.5 -44v-50q-88 -32 -192 -32q-131 0 -213 53.5t-148 163.5l-139 227q-16 26 -36.5 38.5t-55.5 12.5v-297q0 -56 16 -78t53 -28l64 -10v-68q-129 6 -260 6 l-269 -6v68l43 6q50 8 79.5 41t29.5 86v1030q0 92 -55.5 146.5t-157.5 54.5q-120 0 -189 -95t-69 -262v-153h395v-125h-395v-613q0 -56 22 -78.5t72 -27.5l102 -10v-68q-192 6 -323 6l-277 -6v68l37 6q55 9 89 42t34 85v596h-459v-613q0 -54 26.5 -76.5t76.5 -29.5l78 -10 v-68q-177 6 -308 6zM444 922h459v73q0 103 31 191q-24 79 -77 132.5t-142 53.5q-118 0 -194.5 -85.5t-76.5 -239.5v-125z" />
<glyph unicode="fr" horiz-adv-x="1611" d="M45 0v68l37 6q55 9 89 42t34 85v608h-148l-10 61q113 37 158 74v70q0 123 39 223.5t105.5 165t152 99t180.5 34.5q111 0 185.5 -41t74.5 -113q0 -58 -49.5 -86.5t-101.5 -21.5q-16 60 -59 109t-103 49q-97 0 -138.5 -92.5t-41.5 -264.5v-190l344 14q112 4 204 17.5 t128 24.5l36 11v-151q18 5 66 44.5t107 74t114 34.5q70 0 108.5 -42t38.5 -101q0 -71 -39 -105t-100 -34q-54 0 -88 24q6 15 6 39q0 25 -14.5 41.5t-40.5 16.5q-33 0 -87.5 -31.5t-70.5 -36.5v-541q0 -56 22 -78.5t70 -27.5l103 -10v-68q-140 6 -324 6q-69 0 -137.5 -1.5 t-102.5 -2.5l-34 -2v68l37 6q54 9 87 42t33 85v483q0 58 -29 85.5t-91 27.5h-346v-613q0 -56 22 -78.5t72 -27.5l102 -10v-68q-192 6 -323 6z" />
<glyph unicode="ffr" horiz-adv-x="2308" d="M45 0v68l37 6q55 9 89 42t34 85v608h-148l-10 61q113 37 158 74v35q0 121 41.5 217t115 157t170.5 92.5t211 31.5q80 0 160 -26t127 -67q67 74 157 113t191 39q111 0 185.5 -41t74.5 -113q0 -58 -49.5 -86.5t-101.5 -21.5q-16 60 -59 109t-103 49q-97 0 -138.5 -92.5 t-41.5 -264.5v-190l344 14q112 4 204 17.5t129 24.5l36 11v-151q18 5 65.5 44.5t106.5 74t114 34.5q70 0 109 -42t39 -101q0 -70 -39.5 -104.5t-100.5 -34.5q-54 0 -88 24q7 18 7 39q0 25 -14.5 41.5t-41.5 16.5q-33 0 -87 -31.5t-70 -36.5v-541q0 -56 22 -78.5t70 -27.5 l102 -10v-68q-139 6 -323 6q-69 0 -138 -1.5t-103 -2.5l-34 -2v68l37 6q54 9 87.5 42t33.5 85v483q0 57 -29 85t-92 28h-346v-613q0 -56 22 -78.5t72 -27.5l102 -10v-68q-192 6 -323 6l-277 -6v68l37 6q55 9 89 42t34 85v596h-457v-613q0 -54 26.5 -76.5t76.5 -29.5l78 -10 v-68q-177 6 -308 6zM444 922h457v92q0 107 31 198q-24 65 -82 112.5t-148 47.5q-116 0 -187 -84.5t-71 -240.5v-125z" />
<glyph unicode="ft" horiz-adv-x="1486" d="M45 0v68l37 6q55 9 89 42t34 85v608h-148l-10 61q113 37 158 74v70q0 123 39 223.5t105.5 165t152 99t180.5 34.5q111 0 185.5 -41t74.5 -113q0 -58 -49.5 -86.5t-101.5 -21.5q-16 60 -59 109t-103 49q-97 0 -138.5 -92.5t-41.5 -264.5v-190l264 14q220 12 352 240 l63 -19v-198h291v-125h-291v-557q0 -129 136 -129q50 0 96.5 7t67.5 14l22 7l16 -59q-42 -33 -77.5 -53.5t-104 -40t-149.5 -19.5q-114 0 -183 66.5t-69 187.5v588h-434v-625q0 -56 22 -78.5t72 -27.5l102 -10v-68q-192 6 -323 6z" />
<glyph unicode="fft" horiz-adv-x="2185" d="M45 0v68l37 6q55 9 89 42t34 85v608h-148l-10 61q113 37 158 74v35q0 121 41.5 217t115 157t170.5 92.5t211 31.5q82 0 162 -26t127 -67q66 73 157 112.5t191 39.5q111 0 185.5 -41t74.5 -113q0 -58 -49.5 -86.5t-101.5 -21.5q-16 60 -59 109t-103 49q-97 0 -138.5 -92.5 t-41.5 -264.5v-190l264 14q220 12 352 240l64 -19v-198h291v-125h-291v-557q0 -129 135 -129q50 0 96.5 7t67.5 14l22 7l17 -59q-42 -33 -77.5 -53.5t-104.5 -40t-150 -19.5q-114 0 -183 66.5t-69 187.5v588h-434v-625q0 -56 22 -78.5t72 -27.5l102 -10v-68q-192 6 -323 6 l-277 -6v68l37 6q55 9 89 42t34 85v596h-459v-613q0 -54 26.5 -76.5t76.5 -29.5l78 -10v-68q-177 6 -308 6zM444 922h459v92q0 107 31 198q-24 65 -83 112.5t-149 47.5q-116 0 -187 -84.5t-71 -240.5v-125z" />
<glyph unicode="fy" horiz-adv-x="1796" d="M45 0v68l37 6q55 9 89 42t34 85v608h-148l-10 61q113 37 158 74v70q0 123 39 223.5t105.5 165t152 99t180.5 34.5q111 0 185.5 -41t74.5 -113q0 -58 -49.5 -86.5t-101.5 -21.5q-16 60 -59 109t-103 49q-97 0 -138.5 -92.5t-41.5 -264.5v-153q262 -4 548 -4l244 4v-68 l-41 -10q-35 -9 -52.5 -21.5t-17.5 -36.5q0 -2 11 -41l159 -473l177 435q24 63 24 86q0 38 -59 51l-43 10v68q102 -7 190 -7l185 7v-68l-43 -10q-53 -11 -85.5 -47t-62.5 -105l-354 -835q-21 -50 -46 -93t-60.5 -84.5t-76.5 -70.5t-94.5 -46.5t-113.5 -17.5 q-94 0 -144.5 40.5t-50.5 103.5q0 46 31.5 79t91.5 33q24 0 47 -6q-4 -16 -4 -24q0 -33 25 -52.5t67 -19.5q143 0 223 184l50 115l-277 702q-24 59 -65.5 88t-108.5 29l-274 2v-635q0 -56 22 -78.5t72 -27.5l102 -10v-68q-192 6 -323 6z" />
<glyph unicode="ffy" horiz-adv-x="2494" d="M45 0v68l37 6q55 9 89 42t34 85v608h-148l-10 61q113 37 158 74v35q0 121 41.5 217t115 157t170.5 92.5t211 31.5q82 0 162 -26t127 -67q66 73 157 112.5t191 39.5q111 0 185.5 -41t74.5 -113q0 -58 -49.5 -86.5t-101.5 -21.5q-16 60 -59 109t-103 49q-97 0 -138.5 -92.5 t-41.5 -264.5v-153q263 -4 549 -4l243 4v-68l-41 -10q-35 -8 -52 -21t-17 -37q0 -6 10 -41l160 -473l176 435q25 66 25 86q0 37 -60 51l-43 10v68q103 -7 191 -7l184 7v-68l-43 -10q-53 -11 -85.5 -47t-62.5 -105l-354 -835q-21 -50 -46 -93t-60.5 -84.5t-76.5 -70.5 t-94.5 -46.5t-113.5 -17.5q-94 0 -144.5 40.5t-50.5 103.5q0 46 31.5 79t91.5 33q24 0 47 -6q-4 -16 -4 -24q0 -33 25 -52.5t67 -19.5q144 0 224 184l49 115l-277 702q-24 59 -65.5 88t-108.5 29l-274 2v-635q0 -56 22 -78.5t72 -27.5l102 -10v-68q-192 6 -323 6l-277 -6v68 l37 6q55 9 89 42t34 85v596h-459v-613q0 -54 26.5 -76.5t76.5 -29.5l78 -10v-68q-177 6 -308 6zM444 922h459v92q0 107 31 198q-24 64 -83.5 112t-148.5 48q-116 0 -187 -84.5t-71 -240.5v-125z" />
<glyph horiz-adv-x="0" />
<glyph horiz-adv-x="0" />
<glyph unicode="&#xd;" horiz-adv-x="487" />
<glyph unicode=" "  horiz-adv-x="512" />
<glyph unicode="&#x09;" horiz-adv-x="512" />
<glyph unicode="&#xa0;" horiz-adv-x="512" />
<glyph unicode="!" horiz-adv-x="565" d="M127 1294q0 76 45.5 122t110.5 46t110 -46t45 -122q0 -114 -28.5 -255t-57 -287t-28.5 -273l4 -94h-90q4 35 4 94q0 101 -18 216t-39.5 201.5t-39.5 196t-18 201.5zM135 115q0 62 42.5 104.5t105.5 42.5q61 0 104 -43t43 -104q0 -62 -43 -105t-104 -43q-63 0 -105.5 43 t-42.5 105z" />
<glyph unicode="&#x22;" horiz-adv-x="692" d="M76 1341q0 46 32 78.5t78 32.5t78.5 -32.5t32.5 -78.5q0 -66 -33 -195.5t-33 -199.5l5 -86h-99q4 59 4 86q0 64 -32.5 193t-32.5 202zM395 1341q0 46 32.5 78.5t78.5 32.5t78 -32.5t32 -78.5q0 -66 -32.5 -195.5t-32.5 -199.5l4 -86h-98q4 59 4 86q0 64 -33 193t-33 202z " />
<glyph unicode="#" horiz-adv-x="1345" d="M45 324l41 139h223l99 350h-220l39 139h219l95 330h161l-94 -330h273l94 330h162l-95 -330h256l-38 -139h-256l-99 -350h254l-41 -139h-252l-90 -324h-162l91 324h-273l-90 -324h-162l90 324h-225zM471 463h272l99 350h-273z" />
<glyph unicode="$" horiz-adv-x="1081" d="M80 231q0 65 47 105.5t121 40.5q0 -115 51.5 -202t155.5 -109l37 489q-45 27 -70.5 42.5t-66 44.5t-64.5 52.5t-53 58.5t-44.5 70t-26.5 81t-11 97q0 147 108 241.5t285 103.5l12 235h125q-26 -229 -27 -238q109 -12 188.5 -53.5t115.5 -92t36 -101.5q0 -62 -41.5 -100 t-121.5 -38q-4 109 -54 181.5t-133 97.5l-37 -444q47 -27 78 -45.5t74 -47.5t70.5 -53.5t58.5 -59.5t48.5 -69t29.5 -77.5t12 -90.5q0 -81 -24.5 -148.5t-75 -121t-133.5 -84.5t-193 -35l-12 -227h-119q13 164 20 231q-174 16 -270 93t-96 173zM367 1071q0 -121 145 -219 l31 395q-82 -6 -129 -55.5t-47 -120.5zM563 61q86 3 139.5 61t53.5 138q0 74 -43 129t-123 107q-13 -188 -27 -435z" />
<glyph unicode="%" horiz-adv-x="1568" d="M68 975q0 139 96 240.5t258 101.5q132 0 222.5 -85t90.5 -228q0 -139 -96 -240.5t-258 -101.5q-132 0 -222.5 85t-90.5 228zM252 999q0 -117 46 -181t118 -64q65 0 100 61.5t35 163.5q0 117 -46 181.5t-118 64.5q-64 0 -99.5 -62t-35.5 -164zM270 -51q98 134 422.5 662 t409.5 689h196q-109 -143 -430.5 -670t-400.5 -681h-197zM834 242q0 139 96 240.5t258 101.5q132 0 222.5 -85.5t90.5 -228.5q0 -139 -96 -240.5t-258 -101.5q-132 0 -222.5 85.5t-90.5 228.5zM1018 266q0 -117 46 -181.5t118 -64.5q64 0 99.5 62t35.5 164q0 117 -46 181.5 t-118 64.5q-64 0 -99.5 -62t-35.5 -164z" />
<glyph unicode="&#x26;" horiz-adv-x="1486" d="M68 254q0 138 90.5 236.5t224.5 150.5q-85 97 -128.5 182t-43.5 187q0 126 66 230.5t176 163t237 58.5q167 0 258.5 -58t91.5 -159q0 -68 -48.5 -108.5t-114.5 -40.5q-71 0 -117 28q33 58 33 119q0 131 -154 131q-84 0 -145.5 -66.5t-61.5 -187.5q0 -108 45 -197 t133 -184l359 -383q106 150 106 275q0 126 -131 157l-59 15v74q143 -11 299 -11q76 0 143 3t96 5l29 3v-74l-84 -17q-60 -12 -100.5 -46.5t-66 -87.5t-46 -109t-53.5 -128t-74 -128q72 -89 151 -135t140 -46q88 0 154 41l26 -47q-53 -63 -138.5 -98t-164.5 -35 q-95 0 -177 32t-167 122q-42 -33 -71.5 -53t-83.5 -46.5t-125 -39.5t-158 -13q-148 0 -247 79.5t-99 205.5zM279 322q0 -92 65 -143.5t176 -51.5q147 0 258 70l-344 383q-67 -42 -111 -109.5t-44 -148.5z" />
<glyph unicode="'" horiz-adv-x="372" d="M76 1341q0 46 32 78.5t78 32.5t78.5 -32.5t32.5 -78.5q0 -66 -33 -195.5t-33 -199.5l5 -86h-99q4 59 4 86q0 64 -32.5 193t-32.5 202z" />
<glyph unicode="(" horiz-adv-x="696" d="M57 618q0 129 31 256t82 231.5t120.5 200.5t142.5 168.5t151 129.5l53 -52q-194 -209 -279.5 -439.5t-85.5 -494.5q0 -263 86 -493.5t279 -439.5l-53 -52q-99 72 -188.5 169.5t-167.5 222t-124.5 279t-46.5 314.5z" />
<glyph unicode=")" horiz-adv-x="696" d="M59 -315q193 209 279 439.5t86 493.5q0 264 -85.5 494.5t-279.5 439.5l54 52q78 -57 151 -129.5t142 -168.5t120 -200.5t82 -231.5t31 -256q0 -160 -46 -314.5t-124 -279t-167.5 -222t-188.5 -169.5z" />
<glyph unicode="*" horiz-adv-x="727" d="M80 1030q0 32 26 51q24 16 183 76q-61 21 -115.5 46t-69.5 36q-24 16 -24 49q0 26 17.5 44t43.5 18q11 0 23 -4q57 -22 160 -121q-23 122 -23 188q0 26 17.5 44t43.5 18t44 -18t18 -44q0 -66 -23 -188q103 99 160 121q12 4 23 4q26 0 43.5 -18t17.5 -44q0 -33 -24 -49 q-15 -11 -69.5 -36t-115.5 -46q157 -59 182 -76q27 -19 27 -51q0 -26 -17.5 -43.5t-43.5 -17.5q-15 0 -31 8q-53 33 -152 113q23 -141 23 -189q0 -26 -18 -43.5t-44 -17.5t-43.5 17.5t-17.5 43.5q0 48 23 189q-99 -80 -152 -113q-16 -8 -31 -8q-26 0 -43.5 17.5t-17.5 43.5z " />
<glyph unicode="+" horiz-adv-x="933" d="M0 367v184h375v369h184v-369h375v-184h-375v-367h-184v367h-375z" />
<glyph unicode="," horiz-adv-x="571" d="M78 -289q79 31 126.5 90t47.5 127q0 125 -117 187q0 63 39.5 105t106.5 42q73 0 116 -52t43 -122q0 -154 -98.5 -272t-243.5 -154z" />
<glyph unicode="-" horiz-adv-x="729" d="M59 481q96 73 232.5 138t257.5 65q57 0 89 -26t32 -70q0 -29 -8 -41l-574 -109z" />
<glyph unicode="." horiz-adv-x="565" d="M135 115q0 62 42.5 104.5t105.5 42.5q61 0 104 -43t43 -104q0 -62 -43 -105t-104 -43q-63 0 -105.5 43t-42.5 105z" />
<glyph unicode="/" horiz-adv-x="841" d="M18 -346q185 536 320 973q71 230 143 474t108 373l36 128h196q-163 -458 -323 -975q-60 -196 -131 -439t-111 -388l-41 -146h-197z" />
<glyph unicode="0" horiz-adv-x="1261" d="M82 467q0 242 165.5 395.5t418.5 153.5q107 0 200 -32.5t163 -93.5t110.5 -157.5t40.5 -216.5q0 -242 -165.5 -395.5t-418.5 -153.5q-145 0 -259.5 55t-184.5 170t-70 275zM358 514q0 -200 88 -320t209 -120q86 0 142.5 53.5t80 139.5t23.5 202q0 200 -88 320t-209 120 q-86 0 -142.5 -53.5t-80 -139.5t-23.5 -202z" />
<glyph unicode="1" horiz-adv-x="819" d="M70 0v76l55 8q172 26 172 188v422q0 70 -30 103t-87 39l-96 10v76q153 4 327.5 25.5t301.5 64.5l22 -82l-55 -29q-75 -39 -106 -96t-31 -164v-436q0 -109 135 -121l78 -8v-76q-195 6 -338 6z" />
<glyph unicode="2" horiz-adv-x="1058" d="M59 53l394 328q98 82 143 146t45 151q0 90 -48 143t-132 53q-81 0 -120.5 -42.5t-39.5 -106.5q0 -48 21 -102q-40 -29 -89 -29q-54 0 -92.5 34.5t-38.5 96.5q0 85 60.5 153t154 103t197.5 35q166 0 275.5 -86.5t109.5 -212.5q0 -63 -22.5 -119.5t-60.5 -104t-108.5 -102 t-144.5 -101.5t-192 -116l336 27q96 7 149 53t96 137l60 -16l-105 -375h-829z" />
<glyph unicode="3" horiz-adv-x="999" d="M63 741q0 108 123.5 191.5t307.5 83.5q160 0 259 -81.5t99 -197.5q0 -225 -346 -338l2 -10q62 8 90 8q150 0 244 -77.5t94 -200.5q0 -102 -43.5 -184.5t-119 -138.5t-184 -95.5t-230.5 -60t-267 -27.5l-14 86q125 8 232.5 35t192.5 72.5t134 116t49 157.5 q0 109 -71.5 162t-200.5 53q-68 0 -142 -19l-18 93q344 109 344 342q0 69 -44 118.5t-128 49.5q-89 0 -132.5 -49.5t-43.5 -118.5q0 -46 14 -74q-26 -23 -82 -23q-54 0 -86.5 33.5t-32.5 93.5z" />
<glyph unicode="4" horiz-adv-x="1216" d="M102 82l314 461q119 174 119 291q0 87 -41 149q42 47 108 47q62 0 112 -44t50 -132q0 -85 -58 -170t-186 -221l-262 -281h401v230l222 96v-326h264v-162h-264v-413h-222v413h-528z" />
<glyph unicode="5" horiz-adv-x="1034" d="M-55 -172q0 60 38.5 91.5t92.5 31.5q35 0 65 -12q-12 -44 -12 -80q0 -64 37 -101t108 -37q79 0 141 29t99.5 78.5t56.5 111t19 130.5q0 80 -26 142.5t-68 102t-101 65.5t-120 36t-130 10l101 565h434q90 0 148.5 42t95.5 132l45 -10l-84 -350h-576l-30 -174 q111 0 212 -33.5t179 -93.5t124 -151t46 -199q0 -160 -77.5 -283t-210 -187.5t-298.5 -64.5q-135 0 -222 59t-87 150z" />
<glyph unicode="6" horiz-adv-x="1110" d="M92 438q0 166 57.5 311t148 246t211 180.5t239 125t239.5 69.5l17 -63q-148 -49 -269 -130t-198.5 -176.5t-123 -193.5t-59.5 -193q24 5 60.5 26t68.5 42.5t83.5 39t105.5 17.5q143 0 245.5 -98.5t102.5 -255.5q0 -102 -40.5 -184t-108 -132t-149.5 -76t-171 -26 q-113 0 -202.5 39.5t-144.5 106.5t-83.5 150t-28.5 175zM342 420q0 -172 59.5 -261t167.5 -89q102 0 150.5 76.5t48.5 195.5q0 112 -52 186t-147 74q-49 0 -121.5 -28.5t-97.5 -34.5q-8 -41 -8 -119z" />
<glyph unicode="7" horiz-adv-x="1124" d="M76 606l90 385h862l21 -37l-361 -565q-93 -147 -142.5 -258t-49.5 -217q0 -125 84 -233q-56 -62 -144 -62q-91 0 -144.5 63.5t-53.5 161.5q0 102 55.5 205t202.5 303l354 484l-434 -31q-120 -8 -186.5 -62.5t-100.5 -148.5z" />
<glyph unicode="8" horiz-adv-x="1077" d="M96 276q0 58 22 107t59 84.5t74 62.5t78.5 56t61.5 51q-141 97 -203.5 178.5t-62.5 194.5q0 147 123 240t305 93q161 0 279 -83.5t118 -212.5q0 -57 -20 -104.5t-53.5 -80t-67 -57.5t-70 -50.5t-53.5 -45.5q279 -167 279 -381q0 -74 -29.5 -136.5t-76.5 -104t-107 -70 t-120 -41.5t-116 -13q-110 0 -204 35.5t-155 108t-61 169.5zM319 258q0 -93 53.5 -146t135.5 -53q44 0 80.5 14.5t60 37.5t39.5 52t22.5 57t6.5 54q0 56 -18.5 104t-52.5 84.5t-63 59t-69 47.5q-18 -29 -55 -69t-65.5 -70.5t-51.5 -76.5t-23 -95zM358 1055q0 -86 47 -143.5 t177 -139.5q17 25 48.5 59t50 56.5t33.5 62t15 88.5q0 92 -48 149.5t-138 57.5q-82 0 -133.5 -53.5t-51.5 -136.5z" />
<glyph unicode="9" horiz-adv-x="1110" d="M90 600q0 102 40.5 184t108 132t149.5 76t171 26q113 0 202.5 -39.5t144.5 -106.5t83.5 -150t28.5 -175q0 -166 -57.5 -311t-148 -246t-211 -180.5t-239 -125t-239.5 -69.5l-17 63q148 49 269 130t198.5 176.5t123 193.5t59.5 193q-24 -5 -60.5 -26t-68.5 -42.5 t-83.5 -39t-105.5 -17.5q-143 0 -245.5 98.5t-102.5 255.5zM342 643q0 -112 52 -186t147 -74q49 0 121.5 28.5t97.5 34.5q8 41 8 119q0 172 -59.5 261t-167.5 89q-102 0 -150.5 -76.5t-48.5 -195.5z" />
<glyph unicode=":" horiz-adv-x="565" d="M135 115q0 62 42.5 104.5t105.5 42.5q61 0 104 -43t43 -104q0 -62 -43 -105t-104 -43q-63 0 -105.5 43t-42.5 105zM135 700q0 62 42.5 105t105.5 43q61 0 104 -43t43 -105t-43 -104.5t-104 -42.5q-63 0 -105.5 42.5t-42.5 104.5z" />
<glyph unicode=";" horiz-adv-x="565" d="M78 -289q79 31 126.5 90t47.5 127q0 125 -117 187q0 63 39.5 105t106.5 42q73 0 116 -52t43 -122q0 -154 -98.5 -272t-243.5 -154zM135 700q0 62 42.5 105t105.5 43q61 0 104 -43t43 -105t-43 -104.5t-104 -42.5q-63 0 -105.5 42.5t-42.5 104.5z" />
<glyph unicode="&#x3c;" horiz-adv-x="1136" d="M119 373v157l882 373v-182l-659 -270l659 -269v-182z" />
<glyph unicode="=" horiz-adv-x="935" d="M0 154v184h936v-184h-936zM0 567v183h936v-183h-936z" />
<glyph unicode="&#x3e;" horiz-adv-x="1116" d="M119 0v182l659 269l-659 270v182l882 -373v-157z" />
<glyph unicode="?" horiz-adv-x="905" d="M92 1276q0 84 72 135t205 51q106 0 206.5 -44t166 -125t65.5 -177q0 -64 -21 -122t-55 -103t-75.5 -86.5t-82.5 -79.5t-75 -75.5t-55 -82t-21 -90.5q0 -54 18 -92h-59q-50 58 -72 114t-22 136q0 73 35.5 139.5t86 117.5t101 99t86 104t35.5 113q0 52 -59.5 92.5 t-143.5 40.5q-137 0 -137 -102q0 -16 2.5 -31.5t4.5 -23.5l3 -8q-37 -13 -78 -13q-59 0 -95 31t-36 82zM262 115q0 62 42.5 104.5t105.5 42.5q62 0 104.5 -43t42.5 -104q0 -62 -43 -105t-104 -43q-63 0 -105.5 43t-42.5 105z" />
<glyph unicode="@" horiz-adv-x="1634" d="M88 465q0 110 36 224t110.5 221t177.5 190t249 133.5t312 50.5q141 0 260 -41.5t198.5 -112t123.5 -165t44 -199.5q0 -108 -38 -202t-100 -159.5t-141.5 -113t-163 -70t-163.5 -22.5q-53 0 -78.5 23.5t-25.5 76.5q0 76 41 172h-8q-21 -45 -44.5 -85t-59 -86t-80.5 -73.5 t-93 -27.5q-73 0 -110 50.5t-37 133.5q0 123 62 242t167 195.5t219 76.5q34 0 64.5 -13.5t40.5 -29.5q36 84 102 84q49 0 76 -35q-25 -28 -75 -132t-94 -230.5t-44 -194.5q0 -13 2.5 -21.5t14 -17t32.5 -8.5q177 0 296.5 126t119.5 333q0 89 -34 166.5t-98 137.5t-166 95 t-229 35q-140 0 -265.5 -63.5t-212 -166.5t-137 -233.5t-50.5 -263.5q0 -118 36.5 -219.5t109 -180.5t190.5 -124t270 -45q101 0 195.5 24.5t139 47t70.5 42.5q7 -14 7 -22q0 -28 -38.5 -60t-100.5 -59.5t-151.5 -45.5t-182.5 -18q-220 0 -388 78t-263 228.5t-95 353.5z M643 414q0 -57 12 -84t45 -27q40 0 87.5 48t89 122t75 148t56.5 141q-29 63 -93 63q-73 0 -137 -62.5t-99.5 -157t-35.5 -191.5z" />
<glyph unicode="A" horiz-adv-x="1542" d="M29 0v74l37 10q129 36 186 192l436 1170l172 20l438 -1210q29 -80 72 -118.5t103 -53.5l40 -10v-74q-110 8 -292 8q-93 0 -178 -2t-123 -4l-39 -2v74l41 10q100 25 100 113q0 25 -14 69l-88 260h-453l-88 -254q-19 -59 -19 -90q0 -41 28 -64.5t93 -33.5l62 -10v-74 q-138 8 -275 8q-51 0 -111 -2t-94 -4zM508 641h373l-185 539z" />
<glyph unicode="B" horiz-adv-x="1302" d="M76 0v74l49 10q131 26 131 188v938q0 76 -22.5 102.5t-92.5 37.5l-63 10v74q183 -9 328 -9q45 0 128 4.5t115 4.5q217 0 349 -90.5t132 -243.5q0 -238 -299 -324q108 -17 201 -69t152 -135.5t59 -180.5q0 -82 -32.5 -152t-95.5 -124t-165 -84.5t-233 -30.5q-40 0 -151 4 t-177 4q-72 0 -150.5 -2t-120.5 -4zM539 203q0 -55 34.5 -87t106.5 -32q115 0 188.5 79.5t73.5 211.5q0 90 -32 157.5t-85 104.5t-112 54.5t-123 17.5q-31 0 -51 -4v-502zM539 784q37 11 88 11q50 0 100 -7q54 42 85.5 125.5t31.5 176.5q0 115 -59 187.5t-162 72.5 q-45 0 -84 -13v-553z" />
<glyph unicode="C" horiz-adv-x="1478" d="M59 680q0 123 34 238t102.5 213.5t164.5 172.5t227.5 116t282.5 42q108 0 255 -27.5t249 -27.5v-383h-67q-33 153 -148 244.5t-311 91.5q-227 0 -355 -167.5t-128 -449.5q0 -108 21 -206t65.5 -183.5t108.5 -148.5t156 -99t202 -36q85 0 155 29t114.5 77t71.5 102.5 t39 114.5l68 -8l-37 -340q-85 0 -163 -19.5t-166 -39t-197 -19.5q-160 0 -295.5 47.5t-235.5 136.5t-156.5 225t-56.5 304z" />
<glyph unicode="D" horiz-adv-x="1624" d="M76 0v74l49 10q131 26 131 188v938q0 76 -22.5 102.5t-92.5 37.5l-63 10v74q183 -9 328 -9q88 0 233.5 4.5t191.5 4.5q147 0 278.5 -45t233.5 -129t162 -216t60 -294q0 -151 -57.5 -286.5t-161.5 -239t-262 -164t-347 -60.5q-63 0 -168.5 4t-179.5 4q-72 0 -150.5 -2 t-120.5 -4zM539 223q0 -139 163 -139q129 0 228 33.5t160.5 89t100.5 135t54 163t15 181.5q0 303 -162 483.5t-428 180.5q-92 0 -131 -13v-1114z" />
<glyph unicode="E" d="M76 0v74l49 10q131 26 131 188v938q0 76 -22.5 102.5t-92.5 37.5l-63 10v74q195 -9 340 -9l661 9v-336h-67q-16 114 -104 183t-242 69q-88 0 -127 -13v-557h131q153 0 176 146l14 94h74q-8 -133 -8 -262q0 -51 2 -111.5t4 -95.5l2 -35h-76l-12 51q-12 53 -48 79t-102 26 h-157v-455q0 -133 166 -133q135 0 226.5 83.5t137.5 221.5l68 -8l-68 -381q-451 8 -668 8q-72 0 -153 -2t-126 -4z" />
<glyph unicode="F" horiz-adv-x="1163" d="M76 0v74l49 10q131 26 131 188v938q0 76 -22.5 102.5t-92.5 37.5l-63 10v74q195 -9 340 -9l661 9v-336h-67q-16 114 -104 183t-242 69q-88 0 -127 -13v-577h131q153 0 176 145l14 94h74q-8 -133 -8 -262q0 -51 2 -111.5t4 -95.5l2 -34h-76l-12 51q-12 53 -47.5 78.5 t-102.5 25.5h-157v-428q0 -37 10 -62t33 -40t49 -22.5t69 -14.5l66 -10v-74q-232 8 -377 8q-72 0 -150.5 -2t-120.5 -4z" />
<glyph unicode="G" horiz-adv-x="1597" d="M59 680q0 123 34.5 238t104 213.5t165 172.5t226 116t279.5 42q108 0 256 -27.5t250 -27.5v-383h-67q-33 153 -148 244.5t-311 91.5q-227 0 -355 -167.5t-128 -449.5q0 -108 21 -206t65.5 -183.5t108.5 -148.5t156 -99t202 -36q105 0 155.5 43t50.5 116v174q0 64 -32 93 t-115 43l-37 6v73h596v-73l-27 -6q-123 -28 -123 -183v-311q-110 0 -280 -39t-303 -39q-160 0 -295.5 47.5t-235.5 136.5t-156.5 225t-56.5 304z" />
<glyph unicode="H" horiz-adv-x="1742" d="M76 0v74l49 10q131 26 131 188v938q0 76 -22.5 102.5t-92.5 37.5l-63 10v74q183 -9 328 -9q72 0 150.5 2.5t120.5 4.5l42 2v-74l-49 -10q-131 -26 -131 -189v-356h665v405q0 76 -22 102.5t-92 37.5l-64 10v74q183 -9 328 -9q72 0 150.5 2.5t120.5 4.5l42 2v-74l-49 -10 q-131 -26 -131 -189v-938q0 -75 22.5 -101.5t92.5 -37.5l63 -10v-74q-183 8 -328 8q-72 0 -150.5 -2t-120.5 -4l-42 -2v74l49 10q131 26 131 188v410h-665v-459q0 -76 22 -102t92 -37l64 -10v-74q-183 8 -328 8q-72 0 -150.5 -2t-120.5 -4z" />
<glyph unicode="I" horiz-adv-x="794" d="M76 0v74l49 10q131 26 131 188v938q0 76 -22.5 102.5t-92.5 37.5l-63 10v74q183 -9 328 -9q72 0 150.5 2.5t120.5 4.5l42 2v-74l-49 -10q-131 -26 -131 -189v-938q0 -76 22 -102t92 -37l64 -10v-74q-183 8 -328 8q-72 0 -150.5 -2t-120.5 -4z" />
<glyph unicode="J" horiz-adv-x="784" d="M29 -395q15 26 82.5 88.5t93.5 113.5q31 59 41 125.5t10 157.5v1120q0 76 -22.5 102.5t-92.5 37.5l-63 10v74q183 -9 328 -9q72 0 150.5 2.5t120.5 4.5l42 2v-74l-49 -10q-131 -26 -131 -189v-975q0 -165 -31.5 -260.5t-104.5 -173.5q-39 -43 -104 -79.5t-129 -69 t-96 -62.5z" />
<glyph unicode="K" horiz-adv-x="1576" d="M76 0v74l49 10q131 26 131 188v938q0 76 -22.5 102.5t-92.5 37.5l-63 10v74q183 -9 328 -9q72 0 150.5 2.5t120.5 4.5l42 2v-74l-49 -10q-131 -26 -131 -189v-391h133l329 434q31 45 31 78q0 54 -71 68l-54 10v74q146 -9 320 -9q65 0 135.5 2.5t108.5 4.5l38 2v-74 l-53 -10q-75 -15 -130.5 -54t-115.5 -116l-303 -385l365 -519q67 -95 141 -150.5t143 -55.5q17 0 30.5 1.5t18.5 2.5l5 2v-64q-9 -5 -25.5 -13.5t-74 -22t-121.5 -13.5q-257 0 -406 240l-229 372q-64 105 -160 105q-27 0 -55 -8v-449q0 -76 22 -102t92 -37l64 -10v-74 q-183 8 -328 8q-72 0 -150.5 -2t-120.5 -4z" />
<glyph unicode="L" d="M76 0v74l49 10q131 26 131 188v938q0 76 -22.5 102.5t-92.5 37.5l-63 10v74q183 -9 328 -9q72 0 152.5 2.5t124.5 4.5l44 2v-74l-53 -10q-135 -26 -135 -189v-938q0 -81 48.5 -110t133.5 -29q137 0 231.5 95t149.5 249l63 -8l-47 -420q-508 8 -729 8q-72 0 -150.5 -2 t-120.5 -4z" />
<glyph unicode="M" horiz-adv-x="2080" d="M43 0v74l53 10q158 32 174 278l56 828v17q0 67 -29 99q-33 36 -117 48l-43 6v74q254 -9 455 -9q0 -84 55 -196l408 -883l399 860q53 117 53 217q241 0 396 11l6 -74l-49 -10q-70 -14 -98 -57q-21 -32 -21 -95q0 -21 2 -45l90 -936q6 -62 37.5 -93t97.5 -40l70 -10v-72 q-194 6 -346 6q-70 0 -158.5 -2t-141.5 -4l-53 -2v74l47 10q160 36 160 212q0 17 -2 36l-57 669l-477 -1009l-82 -10l-502 1015l-33 -692q-1 -12 -1 -24q0 -84 32 -131q36 -54 123 -66l71 -10v-74q-130 8 -296 8q-70 0 -140 -2t-104 -4z" />
<glyph unicode="N" horiz-adv-x="1644" d="M43 0v74l45 10q76 17 106.5 59t30.5 127v940q0 69 -25 99.5t-94 40.5l-61 10v74q201 -11 428 -11q9 -54 36 -100t85 -109l723 -776v746q0 87 -39 119t-131 47l-70 10v74q179 -9 320 -9q63 0 119 2.5t81 4.5l25 2v-74l-43 -10q-67 -16 -98 -60t-31 -143v-1155l-104 -12 l-981 1058v-764q0 -53 11 -87.5t37 -54.5t55.5 -30t80.5 -18l59 -10v-74q-165 8 -284 8q-65 0 -135.5 -2t-108.5 -4z" />
<glyph unicode="O" horiz-adv-x="1646" d="M59 680q0 121 33.5 235t101.5 213.5t163 173.5t227.5 117t285.5 43q148 0 278 -49t228 -139t154.5 -225.5t56.5 -298.5q0 -101 -24 -197.5t-69 -183.5t-115.5 -160.5t-158.5 -127.5t-202 -84t-242 -30q-118 0 -225.5 31t-197 92t-155.5 146t-102.5 199t-36.5 245z M365 743q0 -149 39 -276t106 -213.5t159 -135t197 -48.5q112 0 194 47.5t129.5 134t70 194t22.5 240.5q0 199 -67 353.5t-181 237.5t-254 83q-90 0 -161 -32t-118 -87t-78 -134t-44.5 -169t-13.5 -195z" />
<glyph unicode="P" horiz-adv-x="1280" d="M76 0v74l49 10q131 26 131 188v938q0 76 -22.5 102.5t-92.5 37.5l-63 10v74q183 -9 328 -9q51 0 158 4.5t153 4.5q214 0 359 -116t145 -290q0 -106 -36.5 -190.5t-95 -133.5t-125 -74.5t-133.5 -25.5q-79 0 -174.5 30t-117.5 32v-443q0 -73 33 -100.5t118 -38.5l72 -10 v-74q-228 8 -373 8q-72 0 -150.5 -2t-120.5 -4zM539 737q33 -2 92.5 -17t91.5 -15q63 0 112 48t74 121t25 154q0 142 -87 232t-212 90q-57 0 -96 -13v-600z" />
<glyph unicode="Q" horiz-adv-x="1646" d="M59 680q0 121 33.5 235t101.5 213.5t163 173.5t227.5 117t285.5 43q148 0 278 -49t228 -139t154.5 -225.5t56.5 -298.5q0 -174 -66.5 -327t-202.5 -268t-323 -159q104 -15 230.5 -51t244 -75.5t247.5 -77.5t287 -62.5t318 -24.5q154 0 334.5 33t337.5 98l19 -16 q-51 -62 -101 -111t-125 -101.5t-157.5 -87t-195.5 -57t-241 -22.5q-122 0 -245 27.5t-227 71.5t-206 97.5t-197 108.5t-183.5 102t-182.5 79.5t-178 39.5q-148 1 -277.5 50.5t-227 139t-154 225t-56.5 298.5zM365 743q0 -149 39 -276t106 -213.5t159 -135t197 -48.5 q112 0 194 47.5t129.5 134t70 194t22.5 240.5q0 199 -67 353.5t-181 237.5t-254 83q-90 0 -161 -32t-118 -87t-78 -134t-44.5 -169t-13.5 -195z" />
<glyph unicode="R" horiz-adv-x="1431" d="M76 0v74l49 10q131 26 131 188v938q0 76 -22.5 102.5t-92.5 37.5l-63 10v74q183 -9 328 -9q58 0 161 4.5t142 4.5q100 0 184.5 -22t142.5 -58.5t98.5 -84.5t59 -99.5t18.5 -104.5q0 -78 -27.5 -143.5t-65.5 -106.5t-89 -73t-87.5 -46.5t-70.5 -23.5q79 -39 156 -164 l154 -250q59 -94 140.5 -151.5t180.5 -57.5v-59q-65 -23 -194 -23q-289 0 -424 271l-142 278q-31 63 -63 91t-82 28q-16 0 -31 -3.5t-21 -7.5l-7 -3v-398q0 -76 22 -102t92 -37l64 -10v-74q-183 8 -328 8q-72 0 -150.5 -2t-120.5 -4zM539 705q49 32 127 32q27 0 52 -3.5 t36 -7.5l12 -3q59 41 105.5 129.5t46.5 198.5q0 94 -44 164t-109.5 102.5t-141.5 32.5q-45 0 -84 -13v-632z" />
<glyph unicode="S" horiz-adv-x="1064" d="M74 33v377h67q36 -338 348 -338q119 0 187.5 60t68.5 157q0 68 -35.5 126t-92 101.5t-125 85.5t-137.5 88.5t-125.5 100t-92 131t-35.5 170.5q0 167 127.5 268.5t335.5 101.5q66 0 193.5 -21.5t195.5 -21.5l-20 -354h-68q-14 142 -103.5 217.5t-221.5 75.5 q-93 0 -153 -55t-60 -138q0 -60 36.5 -113.5t94.5 -95.5t128.5 -84.5t141.5 -90.5t129 -102t94.5 -130t36.5 -164q0 -90 -28.5 -164t-85.5 -132t-152.5 -90t-220.5 -32q-91 0 -229.5 33t-198.5 33z" />
<glyph unicode="T" horiz-adv-x="1368" d="M53 1147l25 319h47q17 -32 84 -32h981q60 0 78 32h47l-23 -329l-59 10q0 180 -246 180h-162v-1104q0 -75 22.5 -101.5t92.5 -37.5l64 -10v-74q-183 8 -328 8q-72 0 -150.5 -2t-121.5 -4l-42 -2v74l50 10q131 26 131 188v1055h-148q-107 0 -176 -43.5t-106 -146.5z" />
<glyph unicode="U" horiz-adv-x="1597" d="M78 1360v74q183 -9 328 -9q72 0 150.5 2.5t120.5 4.5l42 2v-74l-49 -10q-131 -26 -131 -189v-688q0 -186 85.5 -275t266.5 -89q178 0 266 89.5t88 274.5v737q0 73 -28 101t-101 39l-65 10v74q96 -9 260 -9q64 0 126.5 2.5t92.5 4.5l31 2v-74l-50 -10q-129 -25 -129 -189 v-682q0 -114 -31.5 -206t-95.5 -161t-168.5 -107t-242.5 -38q-285 0 -436.5 128t-151.5 384v731q0 76 -22.5 102.5t-92.5 37.5z" />
<glyph unicode="V" horiz-adv-x="1531" d="M25 1360v74q124 -9 286 -9q75 0 160.5 2.5t133.5 4.5l48 2v-74l-30 -10q-78 -28 -78 -113q0 -31 14 -78l307 -850l301 844q23 71 23 100q0 83 -109 99l-57 8v74q129 -7 266 -7q51 0 105.5 1.5t82.5 3.5l29 2v-74l-37 -8q-59 -13 -101.5 -64t-78.5 -147l-442 -1159 l-127 -15l-485 1233q-27 65 -62.5 101t-99.5 49z" />
<glyph unicode="W" horiz-adv-x="2232" d="M25 1360v74q135 -9 311 -9q68 0 147.5 2.5t124.5 4.5l45 2v-74l-32 -10q-82 -25 -82 -103q0 -31 18 -90l256 -805l252 832q8 28 8 59q0 51 -33 75t-94 32l-65 10v74q256 -9 428 -9q2 -108 41 -233l268 -840l264 801q21 68 21 96q0 42 -28.5 67.5t-92.5 35.5l-53 8v74 q133 -9 270 -9q45 0 97.5 2.5t81.5 4.5l30 2v-74l-27 -8q-111 -35 -160 -176l-413 -1194l-129 -15l-351 1041l-317 -1026l-141 -15l-434 1233q-22 62 -57.5 100t-104.5 50z" />
<glyph unicode="X" horiz-adv-x="1460" d="M-18 0v74l63 10q69 10 142.5 50t121.5 108l318 452l-355 480q-22 31 -31.5 44t-33.5 40.5t-42 41.5t-44.5 29t-54.5 21l-48 10v74q146 -11 304 -11q58 0 136.5 2.5t127.5 5.5l49 3v-74l-53 -10q-29 -6 -45.5 -24.5t-16.5 -47.5q0 -35 33 -82l217 -311l221 334 q25 39 25 65q0 51 -84 66l-53 10v74q184 -9 290 -9q50 0 117.5 2.5t109.5 4.5l42 2v-74l-49 -10q-87 -18 -144 -47.5t-106 -98.5l-293 -422l387 -532q56 -78 100 -114t117 -52l49 -10v-74q-156 10 -303 10q-57 0 -140 -2.5t-138 -5.5l-54 -2v74l43 10q80 19 80 74 q0 29 -26 65l-261 369l-260 -377q-26 -36 -26 -68q0 -51 71 -63l58 -10v-74q-142 8 -318 8q-65 0 -126 -2t-89 -4z" />
<glyph unicode="Y" horiz-adv-x="1482" d="M25 1360v74q135 -11 299 -11q83 0 161 2.5t115 5.5l37 3v-74l-33 -10q-55 -18 -55 -70q0 -30 22 -72l260 -477l263 475q22 42 22 70q0 56 -76 74l-41 10v74q140 -9 267 -9q47 0 95 2.5t73 4.5l24 2v-74l-41 -10q-71 -18 -122 -60t-103 -133l-303 -530v-404 q0 -74 26.5 -101t98.5 -38l63 -10v-74q-193 8 -338 8q-72 0 -152.5 -2t-125.5 -4l-45 -2v74l49 10q141 28 141 188v340l-317 568q-79 142 -217 170z" />
<glyph unicode="Z" horiz-adv-x="1353" d="M68 37l860 1300l-363 -26q-165 -11 -250.5 -79.5t-140.5 -205.5l-59 10l57 430h47q1 -4 4.5 -9t24.5 -14t55 -9h940l27 -50l-860 -1292l331 27q113 9 196 36t143 76.5t101.5 109t82.5 148.5l59 -14l-102 -475h-1133z" />
<glyph unicode="[" horiz-adv-x="788" d="M133 -260v1757q167 0 295.5 27.5t192.5 79.5q19 -5 35 -25t16 -45q0 -43 -32 -73t-76 -42t-95 -12q-31 0 -64 3t-50 6l-17 3v-1599q61 12 131 12q51 0 95 -12t76 -42t32 -73q0 -25 -16 -45t-35 -25q-63 51 -191.5 78t-296.5 27z" />
<glyph unicode="\" horiz-adv-x="841" d="M18 1602h197q127 -456 287 -973q60 -195 139.5 -438t129.5 -389l50 -146h-196q-148 534 -283 973q-71 230 -152 473.5t-126 371.5z" />
<glyph unicode="]" horiz-adv-x="788" d="M117 -295q0 43 32 73t75.5 42t94.5 12q31 0 64 -3t51 -6l17 -3v1599q-62 -12 -132 -12q-51 0 -94.5 12t-75.5 42t-32 73q0 25 16 45t35 25q64 -52 192 -79.5t295 -27.5v-1757q-168 0 -296 -27t-191 -78q-19 5 -35 25t-16 45z" />
<glyph unicode="^" horiz-adv-x="1138" d="M96 829l396 805h155l395 -805h-178l-295 611l-293 -611h-180z" />
<glyph unicode="_" horiz-adv-x="903" d="M31 -264h841v-164h-841v164z" />
<glyph unicode="`" horiz-adv-x="819" d="M236 1411q0 41 28.5 69.5t71.5 28.5q24 0 39 -6l209 -426l-27 -26q-36 16 -77 41t-85 61.5t-79 76.5t-57.5 88t-22.5 93z" />
<glyph unicode="a" horiz-adv-x="1044" d="M66 178q0 151 137.5 229t394.5 78q6 100 6 166q0 106 -36 150.5t-122 44.5q-62 0 -90 -34.5t-28 -76.5q0 -35 16 -61q-37 -37 -108 -37q-59 0 -91 29t-32 75q0 64 59.5 113.5t150.5 74.5t193 25q159 0 247.5 -79t88.5 -234q0 -59 -9 -197t-9 -196q0 -68 30 -108t84 -40 q19 0 37.5 4t27.5 8l9 3l27 -45q-3 -4 -9.5 -11t-28.5 -25t-46 -31.5t-62.5 -24.5t-79.5 -11q-72 0 -121.5 31t-74.5 76q-28 -8 -75.5 -36.5t-105 -49.5t-129.5 -21q-112 0 -181.5 55.5t-69.5 155.5zM307 213q0 -56 34 -87.5t99 -31.5q33 0 92 20t72 23q-16 49 -16 125 q0 33 2 69t4 55l2 20q-120 0 -204.5 -48.5t-84.5 -144.5z" />
<glyph unicode="b" horiz-adv-x="1181" d="M25 1434q88 8 186.5 33.5t153.5 46.5l55 22v-702q24 6 57.5 26.5t63 40.5t80.5 36.5t110 16.5q110 0 202 -62.5t144.5 -169.5t52.5 -233q0 -121 -43.5 -220.5t-118.5 -165t-174.5 -101t-211.5 -35.5q-187 0 -303 58l-105 -84l-45 24q24 65 34.5 135t10.5 189v971 q0 59 -31.5 84.5t-101.5 25.5zM420 248q0 -182 182 -182q75 0 135.5 54.5t92.5 140t32 181.5q0 161 -67.5 261t-200.5 100q-38 0 -96.5 -25.5t-77.5 -27.5v-502z" />
<glyph unicode="c" horiz-adv-x="974" d="M51 432q0 160 76 280.5t200 181t275 60.5q88 0 160 -19t120 -63.5t48 -107.5q0 -55 -37.5 -87t-99.5 -32q-49 0 -78 21q6 27 6 53q0 64 -44 101.5t-112 37.5q-111 0 -177 -108t-66 -271q0 -188 86.5 -275t234.5 -87q101 0 219 43l27 -51q-88 -72 -172 -107t-219 -35 q-197 0 -322 124t-125 341z" />
<glyph unicode="d" d="M51 432q0 143 64 260.5t191 189.5t296 72q91 0 162 -14v320q0 59 -31.5 84.5t-101.5 25.5l-17 64q88 8 187 33.5t154 46.5l55 22v-1294q0 -58 32 -84.5t101 -26.5l16 -61q-88 -9 -184.5 -34.5t-149.5 -47.5l-53 -21l-8 121q-24 -6 -57.5 -26.5t-63.5 -41t-81.5 -37 t-110.5 -16.5q-168 0 -284 136t-116 329zM322 479q0 -161 67 -260.5t199 -99.5q39 0 98.5 25.5t77.5 27.5v500q0 92 -51.5 139t-139.5 47q-113 0 -182 -107t-69 -272z" />
<glyph unicode="e" horiz-adv-x="972" d="M51 432q0 150 72 270.5t193 186t266 65.5q175 0 262.5 -96.5t87.5 -257.5l-47 -57l-586 8q-4 -35 -4 -72q0 -71 19.5 -133t60 -113.5t110.5 -81.5t162 -30q111 0 232 37l28 -54q-83 -71 -175 -104t-228 -33q-199 0 -326 127t-127 338zM309 631l383 22q2 10 2 33 q0 22 -2.5 41.5t-11.5 45.5t-24 44.5t-43 31.5t-66 13q-89 0 -153.5 -63t-84.5 -168z" />
<glyph unicode="f" horiz-adv-x="776" d="M45 0v68l37 6q55 9 89 42t34 85v608h-148l-10 61q113 37 158 74v70q0 123 39 223.5t105.5 165t152 99t180.5 34.5q111 0 185.5 -41t74.5 -113q0 -58 -50 -86q-39 -23 -81 -23q-10 0 -20 1q-16 60 -59 109t-103 49q-97 0 -138.5 -92.5t-41.5 -264.5v-153h313v-125h-313 v-613q0 -56 22 -78.5t72 -27.5l102 -10v-68q-192 6 -323 6z" />
<glyph unicode="g" horiz-adv-x="1083" d="M14 -264q0 67 44 107t102 40q66 0 106 -43q-35 -42 -35 -102q0 -81 72.5 -123.5t204.5 -42.5q136 0 224.5 50.5t88.5 123.5q0 72 -68 114t-239 42q-416 0 -416 182q0 46 18 81.5t50.5 58.5t66 36.5t76.5 24.5q-109 27 -184.5 113t-75.5 194q0 155 116.5 258.5 t323.5 103.5q145 0 230 -57q78 -16 143 -16q112 0 207 45q18 -30 18 -66q0 -40 -33.5 -68t-78.5 -28q-35 0 -82 15t-64 18q50 -73 50 -168q0 -152 -114.5 -246t-299.5 -113q-160 -16 -160 -90q0 -40 57.5 -59t192.5 -19q227 0 338 -73.5t111 -206.5q0 -68 -35.5 -129 t-103 -109.5t-177.5 -77t-248 -28.5q-67 0 -127 8.5t-115.5 28.5t-95.5 49t-64 73t-24 99zM283 623q0 -100 55.5 -185.5t142.5 -85.5q164 0 164 248q0 63 -23 123.5t-69 102.5t-104 42q-84 0 -125 -64.5t-41 -180.5z" />
<glyph unicode="h" horiz-adv-x="1253" d="M74 0v68l43 6q50 8 79 41t29 86v1059q0 59 -32 84.5t-101 25.5l-18 64q88 8 187 33.5t153 46.5l55 22v-733q26 4 64.5 29t74 51.5t91.5 48.5t114 22q128 0 197 -74t69 -198v-498q0 -56 16 -78t54 -28l63 -10v-68q-129 6 -260 6q-62 0 -123 -1.5t-91 -2.5l-31 -2v68l26 6 q48 9 74.5 42t26.5 85v444q0 75 -38.5 114.5t-113.5 39.5q-43 0 -116.5 -37t-96.5 -39v-539q0 -56 16 -78t54 -28l63 -10v-68q-129 6 -260 6z" />
<glyph unicode="i" horiz-adv-x="675" d="M76 0v68l41 6q51 8 79.5 40.5t28.5 86.5v475q0 60 -31.5 86t-101.5 26l-16 62q88 8 186.5 33.5t153.5 46.5l55 22v-768q0 -56 15.5 -78t54.5 -28l61 -10v-68q-127 6 -260 6zM180 1341q0 60 43 101t107 41q62 0 104.5 -41t42.5 -101q0 -61 -42.5 -103t-104.5 -42 q-64 0 -107 41.5t-43 103.5z" />
<glyph unicode="j" horiz-adv-x="634" d="M-59 -406q24 22 91.5 70t102.5 94q72 95 72 281v637q0 59 -32.5 85.5t-100.5 26.5l-19 62q88 8 187 33.5t154 46.5l55 22v-811q0 -152 -31.5 -250t-106.5 -174q-42 -42 -103.5 -70.5t-125.5 -53.5t-102 -54zM162 1341q0 60 43.5 101t107.5 41q62 0 105 -41t43 -101 q0 -61 -43 -103t-105 -42q-64 0 -107.5 41.5t-43.5 103.5z" />
<glyph unicode="k" horiz-adv-x="1230" d="M74 0v68l43 6q50 8 79 41t29 86v1059q0 59 -32 84.5t-101 25.5l-18 64q88 8 187 33.5t153 46.5l55 22v-985h80l123 174q22 33 22 57q0 56 -69 66l-43 6v68q104 -7 282 -7q88 0 158.5 1.5t96.5 3.5l26 2v-66l-72 -8q-91 -9 -161.5 -38t-127.5 -103l-75 -99l215 -319 q89 -133 158.5 -177t170.5 -44v-50q-88 -32 -192 -32q-131 0 -213 53.5t-148 163.5l-139 227q-16 26 -36.5 38.5t-55.5 12.5v-297q0 -56 16 -78t54 -28l63 -10v-68q-129 6 -260 6z" />
<glyph unicode="l" horiz-adv-x="643" d="M74 0v68l43 6q50 8 79 41t29 86v1059q0 59 -32 84.5t-101 25.5l-18 64q88 8 187 33.5t153 46.5l55 22v-1352q0 -56 16 -78t54 -28l63 -10v-68q-129 6 -260 6z" />
<glyph unicode="m" horiz-adv-x="1765" d="M53 0v68l43 6q50 8 79.5 41t29.5 86v475q0 59 -32.5 85.5t-100.5 26.5l-19 62q88 8 187 33.5t154 46.5l55 22v-149q21 8 56.5 34.5t68 51.5t81.5 45t99 20q178 0 241 -145q27 9 66.5 34.5t73 49t85 42.5t105.5 19q127 0 196.5 -74t69.5 -198v-498q0 -56 16 -78t54 -28 l63 -10v-68q-129 6 -262 6q-61 0 -118.5 -1.5t-85.5 -2.5l-27 -2v68l24 6q91 22 91 127v444q0 73 -41 113.5t-107 40.5q-41 0 -101 -29.5t-81 -34.5q4 -18 4 -53v-498q0 -51 14 -75t49 -31l47 -10v-68q-106 6 -237 6q-62 0 -120.5 -1.5t-86.5 -2.5l-27 -2v68l25 6 q90 23 90 127v444q0 74 -34 114t-101 40q-45 0 -106 -35.5t-84 -40.5v-539q0 -51 14 -75t49 -31l47 -10v-68q-106 6 -237 6z" />
<glyph unicode="n" horiz-adv-x="1232" d="M53 0v68l43 6q50 8 79.5 41t29.5 86v475q0 59 -32.5 85.5t-100.5 26.5l-19 62q88 8 187 33.5t154 46.5l55 22v-149q27 8 67 34.5t74.5 51.5t89.5 45t113 20q128 0 197 -74t69 -198v-498q0 -56 16 -78t53 -28l64 -10v-68q-129 6 -260 6q-62 0 -123.5 -1.5t-92.5 -2.5 l-30 -2v68l27 6q48 9 74 42t26 85v444q0 154 -151 154q-43 0 -116.5 -37t-96.5 -39v-539q0 -56 16 -78t53 -28l64 -10v-68q-129 6 -260 6z" />
<glyph unicode="o" horiz-adv-x="1138" d="M51 432q0 143 64 260.5t191 189.5t296 72q215 0 350 -130t135 -335q0 -106 -37.5 -201t-106 -166.5t-173.5 -113t-231 -41.5q-215 0 -351.5 130.5t-136.5 334.5zM322 479q0 -101 33 -195t96 -156t141 -62q75 0 128 55.5t76 138t23 182.5q0 101 -33 195t-96.5 156.5 t-142.5 62.5q-56 0 -100.5 -32t-71 -86.5t-40 -120t-13.5 -138.5z" />
<glyph unicode="p" horiz-adv-x="1191" d="M33 -444l43 6q50 8 79 41.5t29 85.5v987q0 59 -32.5 85.5t-100.5 26.5l-18 62q88 8 187 33.5t154 46.5l54 22v-118q25 6 58.5 26.5t63.5 40.5t81 36.5t110 16.5q168 0 284 -136t116 -329q0 -143 -64 -260.5t-190.5 -189.5t-294.5 -72q-85 0 -164 15v-320q0 -47 28 -68 t74 -28l62 -10v-68h-559v68zM428 248q0 -91 52.5 -138t140.5 -47q113 0 182 107t69 272q0 159 -66.5 260t-189.5 101q-41 0 -105 -25.5t-83 -27.5v-502z" />
<glyph unicode="q" horiz-adv-x="1214" d="M51 432q0 143 64 260.5t191 189.5t296 72q166 0 301 -53l111 80l51 -14q-55 -145 -55 -414v-891q0 -48 23 -68.5t63 -27.5l63 -10v-68h-545v68l41 6q51 8 80 41.5t29 85.5v399q-24 -6 -57.5 -26.5t-63.5 -41t-81.5 -37t-110.5 -16.5q-168 0 -284 136t-116 329zM322 479 q0 -161 67 -260.5t199 -99.5q39 0 98.5 25.5t77.5 27.5v500q0 92 -51.5 139t-139.5 47q-113 0 -182 -107t-69 -272z" />
<glyph unicode="r" horiz-adv-x="901" d="M47 0v68l37 6q54 9 87.5 42t33.5 85v475q0 60 -31.5 86t-101.5 26l-17 62q88 8 187 33.5t154 46.5l55 22v-151q18 5 65.5 44.5t106.5 74t114 34.5q70 0 109 -42t39 -101q0 -70 -39.5 -104.5t-100.5 -34.5q-54 0 -88 24q7 18 7 39q0 25 -14.5 41.5t-41.5 16.5 q-33 0 -87 -31.5t-70 -36.5v-541q0 -56 22 -78.5t70 -27.5l102 -10v-68q-139 6 -323 6q-69 0 -138 -1.5t-103 -2.5z" />
<glyph unicode="s" horiz-adv-x="831" d="M82 295h72q9 -115 72 -173.5t163 -58.5q79 0 126.5 36.5t47.5 90.5q0 42 -19.5 76t-51.5 56.5t-72.5 44.5t-83.5 40.5t-83.5 44.5t-72.5 55.5t-51.5 75.5t-19.5 103q0 119 95 193.5t255 74.5q80 0 154.5 -18t123.5 -18l-14 -267h-70q-5 92 -56.5 149.5t-145.5 57.5 q-66 0 -102 -33.5t-36 -87.5q0 -38 25.5 -69t66 -53.5t90 -45t98.5 -50t89.5 -61.5t66 -87t25.5 -119q0 -72 -31.5 -128t-86.5 -89.5t-124 -50.5t-149 -17q-63 0 -158 21.5t-133 21.5z" />
<glyph unicode="t" horiz-adv-x="776" d="M31 870q90 34 178 111t145 158l64 -19v-198h291v-125h-291v-557q0 -129 135 -129q50 0 96.5 7t68.5 14l21 7l17 -59q-42 -33 -77.5 -53.5t-104.5 -40t-150 -19.5q-114 0 -183 66.5t-69 187.5v588h-133z" />
<glyph unicode="u" horiz-adv-x="1198" d="M43 840v67l358 33l19 -18v-646q0 -153 162 -153q37 0 75 16.5t71 36t52 23.5v512q0 64 -28 96.5t-105 32.5v67l361 33l16 -18v-680q0 -58 32 -84.5t101 -26.5l17 -61q-88 -9 -183.5 -34.5t-147.5 -47.5l-52 -21l-11 150q-26 -6 -64.5 -31t-73.5 -51t-90 -47t-112 -21 q-128 0 -197 74t-69 199v485q0 59 -29.5 87t-101.5 28z" />
<glyph unicode="v" horiz-adv-x="1056" d="M12 854v68q127 -9 258 -9q59 0 119.5 2.5t91.5 4.5l31 2v-68l-41 -10q-35 -9 -52.5 -21.5t-17.5 -36.5q0 -2 11 -41l155 -471l181 433q24 63 24 86q0 38 -59 51l-43 10v68q102 -7 190 -7l184 7v-68l-43 -10q-53 -11 -85 -47t-62 -105l-309 -725h-90l-295 762 q-23 58 -46 82.5t-59 32.5z" />
<glyph unicode="w" horiz-adv-x="1619" d="M12 854v68q127 -9 258 -9q59 0 119.5 2.5t91.5 4.5l31 2v-68l-41 -10q-35 -9 -52.5 -21.5t-17.5 -36.5q0 -2 11 -41l155 -471l181 433q24 63 24 86q0 38 -59 51l-43 10v68q110 -7 258 -7l202 -632l183 442q16 42 16 68q0 38 -59 51l-43 10v68q102 -7 192 -7l185 7v-68 l-45 -10q-53 -12 -88 -48t-64 -104l-299 -725h-86l-221 598l-256 -598h-90l-295 762q-23 58 -46 82.5t-59 32.5z" />
<glyph unicode="x" horiz-adv-x="1099" d="M-4 0v68l37 6q56 9 105.5 40t105.5 95l213 242l-211 297q-28 40 -61.5 63t-86.5 33l-51 10v68q100 -7 266 -7q70 0 133 1.5t91 3.5l28 2v-68l-33 -10q-34 -9 -34 -43q0 -27 22 -66l82 -121l109 123q37 43 37 68q0 29 -31 39l-35 10v68q99 -7 195 -7q45 0 95.5 1.5 t78.5 3.5l28 2v-66l-53 -12q-56 -12 -102.5 -41t-98.5 -86l-170 -189l256 -360q51 -74 170 -94l35 -6v-68q-108 6 -276 6q-69 0 -136.5 -1.5t-99.5 -2.5l-33 -2v68l31 6q62 12 62 53q0 29 -21 63l-125 183l-166 -191q-30 -35 -30 -65q0 -37 43 -43l34 -6v-68q-113 6 -219 6 q-56 0 -102 -1.5t-64 -2.5z" />
<glyph unicode="y" horiz-adv-x="1077" d="M-76 -311q0 46 31.5 79t91.5 33q24 0 47 -6q-4 -16 -4 -24q0 -33 25 -52.5t67 -19.5q144 0 224 184l49 115l-285 731q-23 58 -45.5 82.5t-58.5 32.5l-43 10v68q127 -9 258 -9q59 0 119.5 2.5t91.5 4.5l30 2v-68l-41 -10q-35 -8 -52 -21t-17 -37q0 -6 10 -41l160 -473 l176 435q24 63 24 86q0 38 -59 51l-43 10v68q102 -7 190 -7l185 7v-68l-43 -10q-53 -11 -85.5 -47t-62.5 -105l-354 -835q-21 -50 -46 -93t-60.5 -84.5t-76.5 -70.5t-94.5 -46.5t-113.5 -17.5q-94 0 -144.5 40.5t-50.5 103.5z" />
<glyph unicode="z" horiz-adv-x="952" d="M41 35l569 799l-231 -9q-94 -3 -155.5 -44.5t-94.5 -141.5l-57 4l51 303h55q1 -3 5 -8.5t24.5 -14t50.5 -8.5l625 7l14 -37q-49 -62 -196 -260t-269 -365l-123 -168l234 10q71 3 125 18.5t87.5 42.5t53.5 57t33 69l14 41l55 -11l-53 -319h-801z" />
<glyph unicode="{" horiz-adv-x="763" d="M70 578v84h53q75 0 115.5 49.5t40.5 126.5q0 69 -30 226t-30 230q0 81 28.5 143t75.5 98t101 53.5t111 17.5q78 0 113.5 -26t35.5 -60q0 -27 -16.5 -46.5t-49.5 -23.5q-6 21 -26.5 35t-48.5 14q-113 0 -113 -160q0 -66 14.5 -203t14.5 -249q0 -95 -58.5 -171t-144.5 -98 q87 -22 145 -96.5t58 -169.5q0 -112 -14.5 -249t-14.5 -203q0 -160 113 -160q28 0 48.5 14t26.5 35q33 -4 49.5 -23.5t16.5 -46.5q0 -34 -35.5 -60t-113.5 -26q-57 0 -111 17.5t-101 53.5t-75.5 98t-28.5 143q0 73 30 230t30 226q0 77 -40.5 127t-115.5 50h-53z" />
<glyph unicode="|" horiz-adv-x="452" d="M133 -512q12 860 12 1057l-12 1057h184q-12 -854 -12 -1057l12 -1057h-184z" />
<glyph unicode="}" horiz-adv-x="763" d="M80 -281q0 27 16 46.5t49 23.5q6 -21 27 -35t49 -14q113 0 113 160q0 66 -14.5 203t-14.5 249q0 95 58 169.5t145 96.5q-86 22 -144.5 98t-58.5 171q0 112 14.5 249t14.5 203q0 160 -113 160q-28 0 -49 -14t-27 -35q-33 4 -49 23.5t-16 46.5q0 34 35.5 60t113.5 26 q57 0 111 -17.5t101 -53.5t75.5 -98t28.5 -143q0 -73 -30 -230t-30 -226q0 -77 40.5 -126.5t115.5 -49.5h53v-84h-53q-75 0 -115.5 -50t-40.5 -127q0 -69 30 -226t30 -230q0 -81 -28.5 -143t-75.5 -98t-101 -53.5t-111 -17.5q-78 0 -113.5 26t-35.5 60z" />
<glyph unicode="~" horiz-adv-x="1136" d="M84 428q14 108 94.5 184t194.5 76q60 0 119 -21t100 -46.5t95.5 -46.5t105.5 -21q132 0 194 129l64 -45q-12 -113 -93.5 -186.5t-207.5 -73.5q-56 0 -113 21t-96.5 46.5t-93 46.5t-103.5 21q-137 0 -197 -129z" />
<glyph unicode="&#xa0;" horiz-adv-x="567" d="M0 0v2v-2z" />
<glyph unicode="&#xa1;" horiz-adv-x="565" d="M127 -299q0 92 18 201.5t39.5 196t39.5 201.5t18 216l-4 94h90q-4 -35 -4 -94q0 -127 28.5 -273t57 -287t28.5 -255q0 -76 -45 -122t-110 -46t-110.5 46t-45.5 122zM135 881q0 62 42.5 104.5t105.5 42.5q61 0 104 -43t43 -104q0 -62 -43 -105t-104 -43q-63 0 -105.5 43 t-42.5 105z" />
<glyph unicode="&#xa2;" horiz-adv-x="974" d="M51 432q0 210 124 345t319 167l-7 340h127q-2 -152 -4 -330q134 -2 227 -50.5t93 -139.5q0 -55 -37.5 -87t-99.5 -32q-49 0 -78 21q6 27 6 53q0 64 -44 101.5t-112 37.5q-111 0 -177 -108t-66 -271q0 -188 86.5 -275t234.5 -87q101 0 219 43l27 -51q-69 -57 -132 -89.5 t-149 -44.5l6 -311h-127q3 143 5 303q-196 2 -318.5 125.5t-122.5 339.5z" />
<glyph unicode="&#xa3;" horiz-adv-x="1511" d="M86 31q0 38 38 64t103 26q75 0 176 -33q48 40 86.5 157.5t57.5 280.5h-228v58q60 7 120 19.5t90 20.5l30 9l29 221q16 127 65.5 224.5t122 156.5t161 89t189.5 30q132 0 214.5 -49t82.5 -127q0 -56 -39 -95t-98 -39q-65 0 -123 33q21 51 21 86q0 41 -19.5 63.5 t-68.5 22.5q-95 0 -156 -81.5t-92 -249.5l-49 -267h368v-125h-391q-39 -166 -120.5 -289t-174.5 -184q88 -28 191.5 -81.5t176.5 -99t144.5 -80t112.5 -34.5q37 0 55.5 19.5t18.5 50.5q0 37 -23 79.5t-61 72.5q14 27 45 45t67 18q65 0 97 -42t32 -93q0 -108 -99.5 -196.5 t-244.5 -88.5q-80 0 -151.5 21t-147.5 70.5t-147 111t-172 162.5q-73 -37 -160 -37q-64 0 -96.5 24t-32.5 56z" />
<glyph unicode="&#xa5;" horiz-adv-x="1433" d="M59 1237v78q125 -10 275 -10q76 0 150 2.5t110 4.5l35 3v-78l-33 -10q-55 -18 -55 -64q0 -23 20 -65l238 -428l237 420q21 40 21 69q0 57 -66 68l-55 10v78q145 -8 262 -8q43 0 87 2t67 4l22 2v-78l-37 -10q-74 -21 -116 -56t-91 -120l-251 -430l284 8v-123 q-151 0 -311 2v-109l311 9v-123q-151 0 -311 2v-74q0 -67 24 -91.5t91 -35.5l61 -10v-76q-180 8 -311 8q-67 0 -142.5 -2t-118.5 -4l-42 -2v76l49 10q131 25 131 172v27h-324v123q12 0 61.5 -1.5t125 -3t137.5 -2.5v105h-324v123q12 0 55 -1t110 -2.5t124 -2.5l-258 448 q-38 66 -82 104.5t-108 51.5z" />
<glyph unicode="&#xa6;" horiz-adv-x="450" d="M133 -512q8 556 12 877h162l10 -877h-184zM133 1602h184q-8 -556 -12 -877h-162z" />
<glyph unicode="&#xa7;" horiz-adv-x="1179" d="M102 915q0 163 86.5 289t229.5 192t317 66q130 0 199.5 -52t69.5 -122q0 -60 -37.5 -90.5t-87.5 -30.5q-52 0 -101 29q17 23 17 49q0 35 -28 60.5t-89 25.5q-81 0 -139 -49.5t-58 -134.5q0 -53 33 -111.5t85 -115t115.5 -117.5t127 -131t115.5 -144t85 -167t33 -191 q0 -163 -86.5 -289t-229.5 -192t-317 -66q-134 0 -201 51.5t-67 122.5q0 60 37.5 90.5t87.5 30.5q51 0 100 -29q-16 -21 -16 -49q0 -35 28 -60.5t89 -25.5q81 0 138.5 50t57.5 135q0 58 -33 122t-85 124t-115.5 124.5t-127 134t-115.5 141.5t-85 158t-33 172zM270 981 q0 -77 31.5 -154.5t82 -144t111.5 -133t122 -132t111.5 -130.5t82 -140t31.5 -149q0 -89 -47 -156q57 51 84.5 123.5t27.5 138.5q0 82 -31.5 161.5t-82 146t-111 132t-121.5 129.5t-111.5 127.5t-82 137.5t-31.5 149q0 89 47 156q-57 -51 -85 -123.5t-28 -138.5z" />
<glyph unicode="&#xa8;" horiz-adv-x="741" d="M39 1247q0 57 36.5 94t92.5 37q57 0 94 -37t37 -94q0 -56 -37 -92.5t-94 -36.5q-56 0 -92.5 37t-36.5 92zM440 1247q0 57 36.5 94t92.5 37q57 0 94 -37t37 -94q0 -56 -37 -92.5t-94 -36.5q-55 0 -92 37t-37 92z" />
<glyph unicode="&#xa9;" horiz-adv-x="1638" d="M78 715q0 152 59 290t158.5 237.5t237.5 158.5t290 59t290 -59t238 -158.5t159 -237.5t59 -290q0 -203 -100 -374.5t-271.5 -271.5t-374.5 -100q-152 0 -290 59t-237.5 159t-158.5 238t-59 290zM201 715q0 -169 83.5 -313t227.5 -228t313 -84t313 84t228 228t84 313 t-84 313t-228 227.5t-313 83.5q-127 0 -242.5 -49.5t-199 -133t-133 -199t-49.5 -242.5zM383 694q0 89 30.5 170.5t86.5 145t144 101.5t194 38q64 0 151.5 -25.5t143.5 -25.5v-221h-56q-11 82 -75 137t-175 55q-114 0 -195 -97t-81 -241q0 -180 83.5 -271t225.5 -91 q92 0 156 64t84 163l55 -2l-31 -270q-45 0 -139.5 -21.5t-159.5 -21.5q-92 0 -170 24t-140 72t-97 129.5t-35 187.5z" />
<glyph unicode="&#xaa;" horiz-adv-x="874" d="M94 469v137q186 -8 342 -8q73 0 158.5 2t134.5 4l49 2v-137q-174 6 -342 6zM106 862q0 54 31.5 94.5t85 63.5t115.5 34t131 11q2 65 2 90q0 66 -25.5 95.5t-76.5 29.5q-46 0 -66 -20t-20 -48q0 -13 4.5 -25t8.5 -18l5 -6q-29 -20 -72 -20q-40 0 -66 18t-26 53 q0 57 78.5 104.5t202.5 47.5q99 0 158 -48.5t59 -146.5q0 -32 -5 -123t-5 -147q0 -78 61 -78q14 0 30 3.5t25 6.5l9 3l14 -41q-7 -8 -19 -19t-54 -30t-87 -19q-91 0 -127 84q-17 -4 -50.5 -25t-74.5 -39t-82 -18q-83 0 -123.5 36t-40.5 97zM274 889q0 -31 20 -48.5t54 -17.5 q24 0 62 17.5t57 21.5q-6 37 -6 66l2 73q-84 0 -136.5 -29.5t-52.5 -82.5z" />
<glyph unicode="&#xab;" horiz-adv-x="1032" d="M127 487l340 457l98 -123l-301 -329q47 -29 94.5 -66.5t97 -86t80.5 -103.5t31 -103t-29.5 -78t-66.5 -30zM498 487l323 406l82 -109l-276 -286q43 -27 86 -60.5t89 -78t74.5 -96t28.5 -97.5q0 -44 -29 -69t-65 -25z" />
<glyph unicode="&#xac;" horiz-adv-x="935" d="M0 555v180h936v-612h-184v432h-752z" />
<glyph unicode="&#xad;" horiz-adv-x="729" d="M59 481q96 73 232.5 138t257.5 65q57 0 89 -26t32 -70q0 -29 -8 -41l-574 -109z" />
<glyph unicode="&#xae;" horiz-adv-x="798" d="M55 1274q0 145 99.5 244.5t244.5 99.5q142 0 243 -100t101 -244q0 -141 -101.5 -242.5t-242.5 -101.5q-149 0 -246.5 100.5t-97.5 243.5zM125 1274q0 -119 78 -201t196 -82q117 0 195 82.5t78 200.5q0 120 -78 202.5t-195 82.5q-119 0 -196.5 -82.5t-77.5 -202.5z M246 1092v20l14 2q33 6 33 57v224q0 22 -6 29t-23 10l-18 4v28q38 -4 73 -4q16 0 41 2t37 2q56 0 90.5 -25.5t34.5 -68.5q0 -37 -20 -60.5t-40 -28.5l-20 -5q21 -12 35 -43l43 -88q16 -33 51 -33l21 2v-22q-26 -13 -51 -13q-69 0 -97 72l-36 92q-9 21 -29 21q-9 0 -17 -4 v-115q0 -30 29 -33l15 -2v-20q-47 2 -82 2zM362 1288q11 8 29 8l27 -6q24 27 24 82q0 32 -16.5 47t-40.5 15q-15 0 -23 -2v-144z" />
<glyph unicode="&#xaf;" horiz-adv-x="684" d="M51 1178v161q158 -6 291 -6l291 6v-161q-141 6 -291 6z" />
<glyph unicode="&#xb0;" horiz-adv-x="645" d="M66 1202q0 110 74.5 185t183.5 75t183.5 -75t74.5 -185q0 -107 -74.5 -181.5t-183.5 -74.5t-183.5 74.5t-74.5 181.5zM178 1200q0 -62 41.5 -104.5t104.5 -42.5q64 0 102.5 42t38.5 105q0 67 -39 111.5t-102 44.5q-65 0 -105.5 -44.5t-40.5 -111.5z" />
<glyph unicode="&#xb1;" horiz-adv-x="933" d="M0 0v184h934v-184h-934zM0 492v184h373v258h184v-258h377v-184h-377v-261h-184v261h-373z" />
<glyph unicode="&#xb2;" horiz-adv-x="743" d="M45 698l184 199q57 60 87.5 96t70.5 91t58 105.5t18 100.5q0 63 -30 106.5t-93 43.5q-45 0 -74.5 -26t-29.5 -71q0 -19 6 -40q-22 -15 -64 -15q-44 0 -69 22.5t-25 59.5q0 64 71.5 115t206.5 51q141 0 220.5 -68.5t79.5 -167.5q0 -50 -21.5 -102t-49 -92t-81 -93.5 t-88 -83.5t-100.5 -85l-74 -62l268 13q54 3 90 33t51 73l52 -10l-52 -232h-596z" />
<glyph unicode="&#xb3;" horiz-adv-x="686" d="M57 758q0 35 26.5 57.5t66.5 22.5q32 0 61 -11q-4 -20 -4 -30q0 -34 21.5 -54t56.5 -20q69 0 110 39.5t41 111.5q0 102 -74 156.5t-190 54.5l-16 58q237 64 237 205q0 40 -19.5 67t-60.5 27q-44 0 -69 -27.5t-25 -68.5q0 -29 8 -50q-30 -10 -65 -10q-45 0 -70.5 22.5 t-25.5 59.5q0 64 71 116t207 52q116 0 184 -51t68 -125q0 -151 -221 -199l2 -12q130 -22 195 -88.5t65 -149.5q0 -127 -105.5 -199.5t-261.5 -72.5q-95 0 -154 32t-59 87z" />
<glyph unicode="&#xb4;" horiz-adv-x="819" d="M236 1077l208 426q15 6 39 6q43 0 72 -28.5t29 -69.5q0 -56 -34 -115.5t-85.5 -106.5t-104 -82.5t-98.5 -55.5z" />
<glyph unicode="&#xb5;" horiz-adv-x="1198" d="M43 840v67l358 33l19 -18v-646q0 -153 162 -153q37 0 75 16.5t71 36t52 23.5v512q0 64 -28 96.5t-105 32.5v67l361 33l16 -18v-680q0 -58 32 -84.5t101 -26.5l17 -61q-88 -9 -183.5 -34.5t-147.5 -47.5l-52 -21l-11 150q-26 -6 -64.5 -31t-73.5 -51t-90 -47t-112 -21 q-84 0 -139 41q-2 -45 -2 -147q0 -217 76 -271q-8 -29 -35.5 -49t-71.5 -20q-57 0 -93 44.5t-36 131.5q0 64 17.5 243.5t17.5 299.5v485q0 59 -29.5 87t-101.5 28z" />
<glyph unicode="&#xb6;" horiz-adv-x="1267" d="M59 1006q0 428 504 428q90 0 185.5 -3.5t142.5 -3.5q72 0 147.5 1.5t114.5 3.5l39 2v-74l-49 -10q-131 -26 -131 -189v-815q0 -148 -32.5 -270t-89.5 -205.5t-135 -140.5t-168 -83t-190 -26q-77 0 -144.5 22t-115 73t-47.5 122q0 57 35 94t96 37q59 0 94 -30 q-32 -62 -32 -121q0 -50 27.5 -81.5t86.5 -31.5q53 0 93.5 27t64 71t38.5 108t20 127.5t5 141.5v404q-28 -2 -77 -2q-82 0 -151 12.5t-131.5 43.5t-105.5 78.5t-68.5 121t-25.5 168.5zM612 -244q112 44 170 177.5t58 336.5v1080h-101v-1129q0 -183 -28 -288.5t-99 -176.5z " />
<glyph unicode="&#xb7;" horiz-adv-x="423" d="M66 596q0 62 42 104.5t105 42.5q61 0 104 -42.5t43 -104.5t-43 -104.5t-104 -42.5q-63 0 -105 42.5t-42 104.5z" />
<glyph unicode="&#xb8;" horiz-adv-x="649" d="M106 -377q0 36 25 60t62 24q31 0 49 -12q-17 -24 -17 -49q0 -24 20.5 -43t61.5 -19q40 0 65 16t25 38t-15.5 41t-37.5 35t-43.5 34.5t-37 47.5t-15.5 65q0 29 12 55t29 42.5t34.5 29.5t29.5 18l12 6h67q-7 -4 -17 -11.5t-27 -31t-17 -47.5q0 -23 17.5 -44t43 -38.5 t51 -38t43 -52t17.5 -71.5q0 -72 -74 -119.5t-184 -47.5q-75 0 -127 30.5t-52 81.5z" />
<glyph unicode="&#xb9;" horiz-adv-x="614" d="M61 1401q0 22 15 37q74 6 180.5 38t165.5 62l41 -4v-739q0 -27 11.5 -41.5t39.5 -20.5l72 -14v-62q-125 7 -221 7l-242 -5v62l55 12q96 22 96 113v547q-64 -50 -139 -50q-33 0 -53.5 16t-20.5 42z" />
<glyph unicode="&#xba;" horiz-adv-x="821" d="M68 467v137q186 -8 342 -8q73 0 158.5 2t134.5 4l49 2v-137q-174 6 -342 6zM78 1032q0 133 99 232.5t255 99.5q133 0 221 -88.5t88 -212.5q0 -48 -13 -95t-41.5 -90.5t-69 -77t-99.5 -53.5t-129 -20q-127 0 -219 83t-92 222zM258 1057q0 -117 48 -179.5t122 -62.5 q64 0 98.5 56t34.5 165q0 100 -42 169t-124 69q-68 0 -102.5 -57.5t-34.5 -159.5z" />
<glyph unicode="&#xbb;" horiz-adv-x="1032" d="M127 803q0 44 29 69t65 25l314 -416l-324 -405l-82 108l277 287q-43 27 -86 60.5t-89 78t-75 96t-29 97.5zM465 836q0 48 29.5 78t66.5 30l344 -463l-340 -456l-98 122l301 330q-47 29 -94.5 66.5t-97 86t-80.5 103.5t-31 103z" />
<glyph unicode="&#xbc;" horiz-adv-x="1658" d="M61 1327q0 22 15 37q74 6 180.5 38t165.5 62l41 -4v-739q0 -27 11.5 -41.5t39.5 -20.5l72 -14v-61q-125 6 -221 6l-242 -4v61l55 12q96 22 96 113v547q-63 -49 -139 -49q-33 0 -53.5 15.5t-20.5 41.5zM381 -145q109 220 462 983.5t365 789.5l152 -67 q-76 -153 -206.5 -427.5t-225 -476.5t-241.5 -519t-163 -351zM897 264l203 291q69 95 69 197q0 56 -26 100q41 25 82 25q52 0 84 -36.5t32 -82.5q0 -47 -29 -103t-59 -93t-88 -101l-121 -133h222v131l186 94v-225h166v-105h-166v-86q0 -30 9.5 -43.5t35.5 -17.5l53 -10v-66 h-379v61l50 15q45 11 45 57v90h-348z" />
<glyph unicode="&#xbd;" horiz-adv-x="1775" d="M61 1327q0 22 15 37q74 6 180.5 38t165.5 62l41 -4v-739q0 -27 11.5 -41.5t39.5 -20.5l72 -14v-61q-125 6 -221 6l-242 -4v61l55 12q96 22 96 113v547q-63 -49 -139 -49q-33 0 -53.5 15.5t-20.5 41.5zM381 -145q109 220 462 983.5t365 789.5l152 -67 q-76 -153 -206.5 -427.5t-225 -476.5t-241.5 -519t-163 -351zM1077 39l185 199q56 60 87 96.5t70.5 91t57.5 105t18 100.5q0 62 -30 105.5t-93 43.5q-46 0 -75 -25.5t-29 -70.5q0 -20 6 -41q-21 -14 -64 -14q-44 0 -69 22.5t-25 59.5q0 64 72 115t207 51q141 0 220 -68.5 t79 -167.5q0 -50 -21.5 -102t-49 -92t-81 -93.5t-88.5 -84.5t-100 -85l-74 -61l268 12q54 3 90.5 33.5t51.5 73.5l51 -11l-51 -231h-596z" />
<glyph unicode="&#xbe;" horiz-adv-x="1642" d="M57 684q0 35 26.5 57.5t66.5 22.5q34 0 61 -10q-4 -20 -4 -31q0 -34 21.5 -54t56.5 -20q69 0 110 40t41 112q0 102 -74 156.5t-190 54.5l-16 57q237 64 237 205q0 40 -19.5 67t-60.5 27q-44 0 -69 -27.5t-25 -68.5q0 -28 8 -49q-33 -11 -65 -11q-45 0 -70.5 22.5 t-25.5 59.5q0 64 71 116t207 52q116 0 184 -51t68 -125q0 -151 -221 -199l2 -12q130 -22 195 -88t65 -149q0 -127 -105.5 -200t-261.5 -73q-95 0 -154 32t-59 87zM365 -145q109 220 462 983.5t365 789.5l151 -67q-76 -153 -204.5 -423.5t-228 -484t-238 -511.5t-164.5 -355z M881 264l202 291q70 96 70 197q0 54 -27 100q41 25 82 25q53 0 85 -36.5t32 -82.5q0 -47 -29 -103t-59 -93t-88 -101l-121 -133h221v131l187 94v-225h166v-105h-166v-86q0 -30 9.5 -43.5t35.5 -17.5l53 -10v-66h-379v61l49 15q45 11 45 57v90h-348z" />
<glyph unicode="&#xbf;" horiz-adv-x="905" d="M98 -121q0 64 21 122t55 103t75 86.5t82.5 79.5t75.5 75.5t55 82t21 90.5q0 54 -18 92h59q50 -58 72 -114t22 -136q0 -73 -35.5 -139.5t-86 -117.5t-101 -99t-86 -104t-35.5 -113q0 -52 59.5 -92.5t143.5 -40.5q137 0 137 102q0 16 -2.5 32t-5.5 24l-2 8q34 12 78 12 q59 0 95 -31t36 -82q0 -84 -71.5 -135t-204.5 -51q-106 0 -206.5 44t-166.5 125t-66 177zM348 881q0 61 43 104t105 43q63 0 105 -42.5t42 -104.5t-42 -105t-105 -43q-62 0 -105 43.5t-43 104.5z" />
<glyph unicode="&#xc0;" horiz-adv-x="1542" d="M29 0v74l37 10q129 36 186 192l436 1170l172 20l438 -1210q29 -80 72 -118.5t103 -53.5l40 -10v-74q-110 8 -292 8q-93 0 -178 -2t-123 -4l-39 -2v74l41 10q100 25 100 113q0 25 -14 69l-88 260h-453l-88 -254q-19 -59 -19 -90q0 -41 28 -64.5t93 -33.5l62 -10v-74 q-138 8 -275 8q-51 0 -111 -2t-94 -4zM508 641h373l-185 539zM584 1817q0 43 26 71.5t66 28.5q24 0 39 -6l149 -328l-24 -22q-101 38 -178.5 110.5t-77.5 145.5z" />
<glyph unicode="&#xc1;" horiz-adv-x="1542" d="M29 0v74l37 10q129 36 186 192l436 1170l172 20l438 -1210q29 -80 72 -118.5t103 -53.5l40 -10v-74q-110 8 -292 8q-93 0 -178 -2t-123 -4l-39 -2v74l41 10q100 25 100 113q0 25 -14 69l-88 260h-453l-88 -254q-19 -59 -19 -90q0 -41 28 -64.5t93 -33.5l62 -10v-74 q-138 8 -275 8q-51 0 -111 -2t-94 -4zM508 641h373l-185 539zM707 1583l149 328q15 6 39 6q40 0 66 -28.5t26 -71.5q0 -73 -77.5 -145.5t-178.5 -110.5z" />
<glyph unicode="&#xc2;" horiz-adv-x="1542" d="M29 0v74l37 10q129 36 186 192l436 1170l172 20l438 -1210q29 -80 72 -118.5t103 -53.5l40 -10v-74q-110 8 -292 8q-93 0 -178 -2t-123 -4l-39 -2v74l41 10q100 25 100 113q0 25 -14 69l-88 260h-453l-88 -254q-19 -59 -19 -90q0 -41 28 -64.5t93 -33.5l62 -10v-74 q-138 8 -275 8q-51 0 -111 -2t-94 -4zM426 1606l360 282l351 -280q0 -33 -23 -58.5t-74 -25.5q-61 0 -117.5 41.5t-92.5 98t-52 116.5l-213 -262zM508 641h373l-185 539z" />
<glyph unicode="&#xc3;" horiz-adv-x="1542" d="M29 0v74l37 10q129 36 186 192l436 1170l172 20l438 -1210q29 -80 72 -118.5t103 -53.5l40 -10v-74q-110 8 -292 8q-93 0 -178 -2t-123 -4l-39 -2v74l41 10q100 25 100 113q0 25 -14 69l-88 260h-453l-88 -254q-19 -59 -19 -90q0 -41 28 -64.5t93 -33.5l62 -10v-74 q-138 8 -275 8q-51 0 -111 -2t-94 -4zM434 1620q15 95 65 156t138 61q54 0 110 -24.5t106.5 -49t90.5 -24.5q92 0 133 100l51 -43q-15 -94 -64.5 -154.5t-137.5 -60.5q-50 0 -105 24.5t-107.5 49t-95.5 24.5q-92 0 -133 -100zM508 641h373l-185 539z" />
<glyph unicode="&#xc4;" horiz-adv-x="1542" d="M29 0v74l37 10q129 36 186 192l436 1170l172 20l438 -1210q29 -80 72 -118.5t103 -53.5l40 -10v-74q-110 8 -292 8q-93 0 -178 -2t-123 -4l-39 -2v74l41 10q100 25 100 113q0 25 -14 69l-88 260h-453l-88 -254q-19 -59 -19 -90q0 -41 28 -64.5t93 -33.5l62 -10v-74 q-138 8 -275 8q-51 0 -111 -2t-94 -4zM442 1731q0 57 36.5 94t92.5 37q57 0 94 -37t37 -94q0 -56 -37 -92.5t-94 -36.5q-55 0 -92 37t-37 92zM508 641h373l-185 539zM864 1731q0 57 36.5 94t92.5 37q57 0 94 -37t37 -94q0 -56 -37 -92.5t-94 -36.5q-55 0 -92 37t-37 92z" />
<glyph unicode="&#xc5;" horiz-adv-x="1542" d="M29 0v74l37 10q129 36 186 192l436 1170l172 20l438 -1210q29 -80 72 -118.5t103 -53.5l40 -10v-74q-110 8 -292 8q-93 0 -178 -2t-123 -4l-39 -2v74l41 10q100 25 100 113q0 25 -14 69l-88 260h-453l-88 -254q-19 -59 -19 -90q0 -41 28 -64.5t93 -33.5l62 -10v-74 q-138 8 -275 8q-51 0 -111 -2t-94 -4zM508 641h373l-185 539zM545 1741q0 86 64 151.5t175 65.5q92 0 152.5 -55t60.5 -150q0 -89 -64 -154t-175 -65q-93 0 -153 55t-60 152zM662 1751q0 -63 33.5 -100t84.5 -37q101 0 101 127q0 63 -34 100t-85 37q-100 0 -100 -127z" />
<glyph unicode="&#xc6;" horiz-adv-x="1880" d="M-16 0v74l63 10q59 9 118.5 58t106.5 130l559 959q17 30 17 49q0 28 -31.5 43.5t-99.5 26.5l-64 10v74q281 -9 426 -9l686 9v-336h-67q-16 114 -104 183t-242 69q-88 0 -127 -13v-557h131q153 0 176 146l14 94h74q-8 -133 -8 -262q0 -51 2 -111.5t4 -95.5l2 -35h-76 l-12 51q-12 53 -48 79t-102 26h-157v-455q0 -133 166 -133q127 0 223 85.5t141 219.5l68 -8l-68 -381q-475 8 -692 8q-72 0 -147.5 -2t-114.5 -4l-39 -2v74l49 10q131 26 131 188v256h-399l-142 -256q-34 -63 -34 -104q0 -70 88 -84l59 -10v-74q-144 8 -281 8 q-50 0 -112.5 -2t-99.5 -4zM608 641h334v594z" />
<glyph unicode="&#xc7;" horiz-adv-x="1478" d="M59 680q0 123 34 238t102.5 213.5t164.5 172.5t227.5 116t282.5 42q108 0 255 -27.5t249 -27.5v-383h-67q-33 153 -148 244.5t-311 91.5q-227 0 -355 -167.5t-128 -449.5q0 -108 21 -206t65.5 -183.5t108.5 -148.5t156 -99t202 -36q85 0 155 29t114.5 77t71.5 102.5 t39 114.5l68 -8l-37 -340q-98 0 -235 -36t-248 -40q-35 -35 -35 -71q0 -23 17.5 -44t43 -38.5t51 -38t43 -52t17.5 -71.5q0 -72 -74 -120t-184 -48q-75 0 -126.5 31t-51.5 82q0 37 24.5 60.5t61.5 23.5q29 0 49 -13q-16 -22 -16 -49q0 -24 20.5 -42.5t61.5 -18.5 q40 0 65 15.5t25 37.5t-15.5 41t-37.5 35t-44 34.5t-37.5 47.5t-15.5 65q0 78 80 131q-206 7 -364.5 90.5t-251.5 244t-93 378.5z" />
<glyph unicode="&#xc8;" d="M76 0v74l49 10q131 26 131 188v938q0 76 -22.5 102.5t-92.5 37.5l-63 10v74q195 -9 340 -9l661 9v-336h-67q-16 114 -104 183t-242 69q-88 0 -127 -13v-557h131q153 0 176 146l14 94h74q-8 -133 -8 -262q0 -51 2 -111.5t4 -95.5l2 -35h-76l-12 51q-12 53 -48 79t-102 26 h-157v-455q0 -133 166 -133q135 0 226.5 83.5t137.5 221.5l68 -8l-68 -381q-451 8 -668 8q-72 0 -153 -2t-126 -4zM485 1817q0 43 26.5 71.5t66.5 28.5q23 0 38 -6l150 -328l-25 -22q-101 38 -178.5 110.5t-77.5 145.5z" />
<glyph unicode="&#xc9;" d="M76 0v74l49 10q131 26 131 188v938q0 76 -22.5 102.5t-92.5 37.5l-63 10v74q195 -9 340 -9l661 9v-336h-67q-16 114 -104 183t-242 69q-88 0 -127 -13v-557h131q153 0 176 146l14 94h74q-8 -133 -8 -262q0 -51 2 -111.5t4 -95.5l2 -35h-76l-12 51q-12 53 -48 79t-102 26 h-157v-455q0 -133 166 -133q135 0 226.5 83.5t137.5 221.5l68 -8l-68 -381q-451 8 -668 8q-72 0 -153 -2t-126 -4zM535 1583l149 328q15 6 39 6q40 0 66 -28.5t26 -71.5q0 -73 -77.5 -145.5t-178.5 -110.5z" />
<glyph unicode="&#xca;" d="M76 0v74l49 10q131 26 131 188v938q0 76 -22.5 102.5t-92.5 37.5l-63 10v74q195 -9 340 -9l661 9v-336h-67q-16 114 -104 183t-242 69q-88 0 -127 -13v-557h131q153 0 176 146l14 94h74q-8 -133 -8 -262q0 -51 2 -111.5t4 -95.5l2 -35h-76l-12 51q-12 53 -48 79t-102 26 h-157v-455q0 -133 166 -133q135 0 226.5 83.5t137.5 221.5l68 -8l-68 -381q-451 8 -668 8q-72 0 -153 -2t-126 -4zM268 1606l361 282l350 -280q0 -33 -22.5 -58.5t-73.5 -25.5q-61 0 -117.5 41.5t-92.5 98t-52 116.5l-213 -262z" />
<glyph unicode="&#xcb;" d="M76 0v74l49 10q131 26 131 188v938q0 76 -22.5 102.5t-92.5 37.5l-63 10v74q195 -9 340 -9l661 9v-336h-67q-16 114 -104 183t-242 69q-88 0 -127 -13v-557h131q153 0 176 146l14 94h74q-8 -133 -8 -262q0 -51 2 -111.5t4 -95.5l2 -35h-76l-12 51q-12 53 -48 79t-102 26 h-157v-455q0 -133 166 -133q135 0 226.5 83.5t137.5 221.5l68 -8l-68 -381q-451 8 -668 8q-72 0 -153 -2t-126 -4zM297 1731q0 57 36.5 94t92.5 37q57 0 94 -37t37 -94q0 -56 -37 -92.5t-94 -36.5q-56 0 -92.5 37t-36.5 92zM719 1731q0 57 36.5 94t92.5 37q57 0 94 -37 t37 -94q0 -56 -37 -92.5t-94 -36.5q-56 0 -92.5 37t-36.5 92z" />
<glyph unicode="&#xcc;" horiz-adv-x="794" d="M76 0v74l49 10q131 26 131 188v938q0 76 -22.5 102.5t-92.5 37.5l-63 10v74q183 -9 328 -9q72 0 150.5 2.5t120.5 4.5l42 2v-74l-49 -10q-131 -26 -131 -189v-938q0 -76 22 -102t92 -37l64 -10v-74q-183 8 -328 8q-72 0 -150.5 -2t-120.5 -4zM207 1817q0 43 26 71.5 t66 28.5q24 0 39 -6l149 -328l-24 -22q-101 38 -178.5 110.5t-77.5 145.5z" />
<glyph unicode="&#xcd;" horiz-adv-x="794" d="M76 0v74l49 10q131 26 131 188v938q0 76 -22.5 102.5t-92.5 37.5l-63 10v74q183 -9 328 -9q72 0 150.5 2.5t120.5 4.5l42 2v-74l-49 -10q-131 -26 -131 -189v-938q0 -76 22 -102t92 -37l64 -10v-74q-183 8 -328 8q-72 0 -150.5 -2t-120.5 -4zM324 1583l149 328q15 6 39 6 q40 0 66 -28.5t26 -71.5q0 -73 -77.5 -145.5t-178.5 -110.5z" />
<glyph unicode="&#xce;" horiz-adv-x="794" d="M53 1606l361 282l350 -280q0 -33 -22.5 -58.5t-73.5 -25.5q-61 0 -117.5 41.5t-92.5 98t-52 116.5l-213 -262zM76 0v74l49 10q131 26 131 188v938q0 76 -22.5 102.5t-92.5 37.5l-63 10v74q183 -9 328 -9q72 0 150.5 2.5t120.5 4.5l42 2v-74l-49 -10q-131 -26 -131 -189 v-938q0 -76 22 -102t92 -37l64 -10v-74q-183 8 -328 8q-72 0 -150.5 -2t-120.5 -4z" />
<glyph unicode="&#xcf;" horiz-adv-x="794" d="M70 1731q0 57 36.5 94t92.5 37q57 0 94 -37t37 -94q0 -56 -37 -92.5t-94 -36.5q-55 0 -92 37t-37 92zM76 0v74l49 10q131 26 131 188v938q0 76 -22.5 102.5t-92.5 37.5l-63 10v74q183 -9 328 -9q72 0 150.5 2.5t120.5 4.5l42 2v-74l-49 -10q-131 -26 -131 -189v-938 q0 -76 22 -102t92 -37l64 -10v-74q-183 8 -328 8q-72 0 -150.5 -2t-120.5 -4zM492 1731q0 57 36.5 94t92.5 37q57 0 94 -37t37 -94q0 -56 -37 -92.5t-94 -36.5q-55 0 -92 37t-37 92z" />
<glyph unicode="&#xd0;" horiz-adv-x="1624" d="M31 645v135q123 -2 225 -2v432q0 76 -22.5 102.5t-92.5 37.5l-63 10v74q183 -9 328 -9q88 0 233.5 4.5t191.5 4.5q147 0 278.5 -45t233.5 -129t162 -216t60 -294q0 -151 -57.5 -286.5t-161.5 -239t-262 -164t-347 -60.5q-63 0 -168.5 4t-179.5 4q-72 0 -150.5 -2 t-120.5 -4l-42 -2v74l49 10q131 26 131 188v373h-225zM539 223q0 -139 163 -139q129 0 228 33.5t160.5 89t100.5 135t54 163t15 181.5q0 303 -162 483.5t-428 180.5q-92 0 -131 -13v-559q69 0 176 1t116 1v-135h-292v-422z" />
<glyph unicode="&#xd1;" horiz-adv-x="1644" d="M43 0v74l45 10q76 17 106.5 59t30.5 127v940q0 69 -25 99.5t-94 40.5l-61 10v74q201 -11 428 -11q9 -54 36 -100t85 -109l723 -776v746q0 87 -39 119t-131 47l-70 10v74q179 -9 320 -9q63 0 119 2.5t81 4.5l25 2v-74l-43 -10q-67 -16 -98 -60t-31 -143v-1155l-104 -12 l-981 1058v-764q0 -53 11 -87.5t37 -54.5t55.5 -30t80.5 -18l59 -10v-74q-165 8 -284 8q-65 0 -135.5 -2t-108.5 -4zM512 1620q15 95 65 156t138 61q54 0 110 -24.5t106.5 -49t90.5 -24.5q92 0 133 100l51 -43q-15 -94 -64.5 -154.5t-137.5 -60.5q-50 0 -105 24.5t-107.5 49 t-95.5 24.5q-92 0 -133 -100z" />
<glyph unicode="&#xd2;" horiz-adv-x="1646" d="M59 680q0 121 33.5 235t101.5 213.5t163 173.5t227.5 117t285.5 43q148 0 278 -49t228 -139t154.5 -225.5t56.5 -298.5q0 -101 -24 -197.5t-69 -183.5t-115.5 -160.5t-158.5 -127.5t-202 -84t-242 -30q-118 0 -225.5 31t-197 92t-155.5 146t-102.5 199t-36.5 245z M365 743q0 -149 39 -276t106 -213.5t159 -135t197 -48.5q112 0 194 47.5t129.5 134t70 194t22.5 240.5q0 199 -67 353.5t-181 237.5t-254 83q-90 0 -161 -32t-118 -87t-78 -134t-44.5 -169t-13.5 -195zM604 1817q0 43 26 71.5t66 28.5q24 0 39 -6l150 -328l-25 -22 q-101 38 -178.5 110.5t-77.5 145.5z" />
<glyph unicode="&#xd3;" horiz-adv-x="1646" d="M59 680q0 121 33.5 235t101.5 213.5t163 173.5t227.5 117t285.5 43q148 0 278 -49t228 -139t154.5 -225.5t56.5 -298.5q0 -101 -24 -197.5t-69 -183.5t-115.5 -160.5t-158.5 -127.5t-202 -84t-242 -30q-118 0 -225.5 31t-197 92t-155.5 146t-102.5 199t-36.5 245z M365 743q0 -149 39 -276t106 -213.5t159 -135t197 -48.5q112 0 194 47.5t129.5 134t70 194t22.5 240.5q0 199 -67 353.5t-181 237.5t-254 83q-90 0 -161 -32t-118 -87t-78 -134t-44.5 -169t-13.5 -195zM760 1583l149 328q15 6 39 6q40 0 66 -28.5t26 -71.5 q0 -73 -77.5 -145.5t-178.5 -110.5z" />
<glyph unicode="&#xd4;" horiz-adv-x="1646" d="M59 680q0 121 33.5 235t101.5 213.5t163 173.5t227.5 117t285.5 43q148 0 278 -49t228 -139t154.5 -225.5t56.5 -298.5q0 -101 -24 -197.5t-69 -183.5t-115.5 -160.5t-158.5 -127.5t-202 -84t-242 -30q-118 0 -225.5 31t-197 92t-155.5 146t-102.5 199t-36.5 245z M365 743q0 -149 39 -276t106 -213.5t159 -135t197 -48.5q112 0 194 47.5t129.5 134t70 194t22.5 240.5q0 199 -67 353.5t-181 237.5t-254 83q-90 0 -161 -32t-118 -87t-78 -134t-44.5 -169t-13.5 -195zM502 1606l360 282l350 -280q0 -33 -22.5 -58.5t-73.5 -25.5 q-61 0 -117.5 41.5t-92.5 98t-52 116.5l-213 -262z" />
<glyph unicode="&#xd5;" horiz-adv-x="1646" d="M59 680q0 121 33.5 235t101.5 213.5t163 173.5t227.5 117t285.5 43q148 0 278 -49t228 -139t154.5 -225.5t56.5 -298.5q0 -101 -24 -197.5t-69 -183.5t-115.5 -160.5t-158.5 -127.5t-202 -84t-242 -30q-118 0 -225.5 31t-197 92t-155.5 146t-102.5 199t-36.5 245z M365 743q0 -149 39 -276t106 -213.5t159 -135t197 -48.5q112 0 194 47.5t129.5 134t70 194t22.5 240.5q0 199 -67 353.5t-181 237.5t-254 83q-90 0 -161 -32t-118 -87t-78 -134t-44.5 -169t-13.5 -195zM518 1620q15 95 65 156t138 61q54 0 110 -24.5t106.5 -49t90.5 -24.5 q92 0 133 100l51 -43q-15 -94 -64.5 -154.5t-137.5 -60.5q-50 0 -105 24.5t-107.5 49t-95.5 24.5q-92 0 -133 -100z" />
<glyph unicode="&#xd6;" horiz-adv-x="1646" d="M59 680q0 121 33.5 235t101.5 213.5t163 173.5t227.5 117t285.5 43q148 0 278 -49t228 -139t154.5 -225.5t56.5 -298.5q0 -101 -24 -197.5t-69 -183.5t-115.5 -160.5t-158.5 -127.5t-202 -84t-242 -30q-118 0 -225.5 31t-197 92t-155.5 146t-102.5 199t-36.5 245z M365 743q0 -149 39 -276t106 -213.5t159 -135t197 -48.5q112 0 194 47.5t129.5 134t70 194t22.5 240.5q0 199 -67 353.5t-181 237.5t-254 83q-90 0 -161 -32t-118 -87t-78 -134t-44.5 -169t-13.5 -195zM492 1731q0 57 36.5 94t92.5 37q57 0 94 -37t37 -94q0 -56 -37 -92.5 t-94 -36.5q-55 0 -92 37t-37 92zM913 1731q0 57 36.5 94t92.5 37q57 0 94.5 -37t37.5 -94q0 -56 -37.5 -92.5t-94.5 -36.5q-56 0 -92.5 37t-36.5 92z" />
<glyph unicode="&#xd7;" horiz-adv-x="1138" d="M119 133l319 322l-319 323l131 127l319 -321l320 321l131 -127l-320 -323l320 -322l-131 -131l-320 322l-319 -322z" />
<glyph unicode="&#xd8;" horiz-adv-x="1646" d="M59 680q0 121 33.5 235t101.5 213.5t163 173.5t227.5 117t285.5 43q196 0 355 -84l96 131h184q-13 -17 -43.5 -55.5t-60.5 -77.5t-58 -76q116 -95 180 -234.5t64 -315.5q0 -101 -24 -197.5t-69 -183.5t-115.5 -160.5t-158.5 -127.5t-202 -84t-242 -30q-194 0 -360 86 l-90 -125h-185q18 25 71.5 93t84.5 110q-112 95 -175 234.5t-63 314.5zM365 743q0 -229 92 -405q161 213 647 874q-139 148 -324 148q-90 0 -161 -32t-118 -87t-78 -134t-44.5 -169t-13.5 -195zM539 221q135 -151 327 -151q112 0 194 47.5t129.5 134t70 194t22.5 240.5 q0 233 -96 410q-216 -283 -647 -875z" />
<glyph unicode="&#xd9;" horiz-adv-x="1597" d="M78 1360v74q183 -9 328 -9q72 0 150.5 2.5t120.5 4.5l42 2v-74l-49 -10q-131 -26 -131 -189v-688q0 -186 85.5 -275t266.5 -89q178 0 266 89.5t88 274.5v737q0 73 -28 101t-101 39l-65 10v74q96 -9 260 -9q64 0 126.5 2.5t92.5 4.5l31 2v-74l-50 -10q-129 -25 -129 -189 v-682q0 -114 -31.5 -206t-95.5 -161t-168.5 -107t-242.5 -38q-285 0 -436.5 128t-151.5 384v731q0 76 -22.5 102.5t-92.5 37.5zM645 1817q0 43 26 71.5t66 28.5q24 0 39 -6l150 -328l-25 -22q-101 38 -178.5 110.5t-77.5 145.5z" />
<glyph unicode="&#xda;" horiz-adv-x="1597" d="M78 1360v74q183 -9 328 -9q72 0 150.5 2.5t120.5 4.5l42 2v-74l-49 -10q-131 -26 -131 -189v-688q0 -186 85.5 -275t266.5 -89q178 0 266 89.5t88 274.5v737q0 73 -28 101t-101 39l-65 10v74q96 -9 260 -9q64 0 126.5 2.5t92.5 4.5l31 2v-74l-50 -10q-129 -25 -129 -189 v-682q0 -114 -31.5 -206t-95.5 -161t-168.5 -107t-242.5 -38q-285 0 -436.5 128t-151.5 384v731q0 76 -22.5 102.5t-92.5 37.5zM895 1583l149 328q15 6 39 6q40 0 66.5 -28.5t26.5 -71.5q0 -73 -77.5 -145.5t-178.5 -110.5z" />
<glyph unicode="&#xdb;" horiz-adv-x="1597" d="M78 1360v74q183 -9 328 -9q72 0 150.5 2.5t120.5 4.5l42 2v-74l-49 -10q-131 -26 -131 -189v-688q0 -186 85.5 -275t266.5 -89q178 0 266 89.5t88 274.5v737q0 73 -28 101t-101 39l-65 10v74q96 -9 260 -9q64 0 126.5 2.5t92.5 4.5l31 2v-74l-50 -10q-129 -25 -129 -189 v-682q0 -114 -31.5 -206t-95.5 -161t-168.5 -107t-242.5 -38q-285 0 -436.5 128t-151.5 384v731q0 76 -22.5 102.5t-92.5 37.5zM518 1606l361 282l350 -280q0 -33 -22.5 -58.5t-73.5 -25.5q-61 0 -118 41.5t-93 98t-52 116.5l-213 -262z" />
<glyph unicode="&#xdc;" horiz-adv-x="1597" d="M78 1360v74q183 -9 328 -9q72 0 150.5 2.5t120.5 4.5l42 2v-74l-49 -10q-131 -26 -131 -189v-688q0 -186 85.5 -275t266.5 -89q178 0 266 89.5t88 274.5v737q0 73 -28 101t-101 39l-65 10v74q96 -9 260 -9q64 0 126.5 2.5t92.5 4.5l31 2v-74l-50 -10q-129 -25 -129 -189 v-682q0 -114 -31.5 -206t-95.5 -161t-168.5 -107t-242.5 -38q-285 0 -436.5 128t-151.5 384v731q0 76 -22.5 102.5t-92.5 37.5zM559 1731q0 57 36.5 94t92.5 37q57 0 94 -37t37 -94q0 -56 -37 -92.5t-94 -36.5q-56 0 -92.5 37t-36.5 92zM981 1731q0 57 36.5 94t92.5 37 q57 0 94 -37t37 -94q0 -56 -37 -92.5t-94 -36.5q-56 0 -92.5 37t-36.5 92z" />
<glyph unicode="&#xdd;" horiz-adv-x="1482" d="M25 1360v74q135 -11 299 -11q83 0 161 2.5t115 5.5l37 3v-74l-33 -10q-55 -18 -55 -70q0 -30 22 -72l260 -477l263 475q22 42 22 70q0 56 -76 74l-41 10v74q140 -9 267 -9q47 0 95 2.5t73 4.5l24 2v-74l-41 -10q-71 -18 -122 -60t-103 -133l-303 -530v-404 q0 -74 26.5 -101t98.5 -38l63 -10v-74q-193 8 -338 8q-72 0 -152.5 -2t-125.5 -4l-45 -2v74l49 10q141 28 141 188v340l-317 568q-79 142 -217 170zM797 1583l149 328q15 6 39 6q40 0 66 -28.5t26 -71.5q0 -73 -77.5 -145.5t-178.5 -110.5z" />
<glyph unicode="&#xde;" horiz-adv-x="1280" d="M76 0v74l49 10q131 26 131 188v938q0 76 -22.5 102.5t-92.5 37.5l-63 10v74q183 -9 328 -9q72 0 150.5 2.5t120.5 4.5l42 2v-74l-49 -10q-131 -26 -131 -189v-88q21 0 61 15.5t98 31t123 15.5q104 0 193.5 -47t148 -144t58.5 -227q0 -129 -58.5 -226.5t-148 -145.5 t-193.5 -48q-65 0 -122.5 15.5t-97.5 30.5t-62 15v-135q0 -73 27 -100.5t100 -38.5l63 -10v-74q-195 8 -340 8q-72 0 -150.5 -2t-120.5 -4zM539 442q6 -1 62.5 -17.5t107.5 -16.5q106 0 165.5 86.5t59.5 222.5q0 134 -60 219.5t-165 85.5q-49 0 -103.5 -17.5t-66.5 -17.5 v-545z" />
<glyph unicode="&#xdf;" horiz-adv-x="1349" d="M90 0v68l37 6q54 10 88.5 42.5t34.5 84.5v608h-148l-8 61q10 2 27 6t58.5 23t70.5 45v70q0 123 43.5 223.5t117 165t166.5 99t195 34.5q207 0 336 -86t129 -195q0 -56 -19 -101.5t-50 -77t-68 -58t-74 -50.5t-68 -48t-50 -56.5t-19 -70.5q0 -32 23 -62t59.5 -56t80.5 -53 t88 -60t80.5 -70t59.5 -89.5t23 -113.5q0 -148 -102.5 -235t-280.5 -87q-115 0 -206 53.5t-91 139.5q0 57 37 86.5t85 29.5q18 0 37.5 -2.5t29.5 -5.5l11 -2q-16 -40 -16 -71q0 -57 40.5 -94.5t110.5 -37.5q71 0 109.5 41.5t38.5 108.5q0 47 -23.5 86t-61.5 68t-84 56.5 t-92 56.5t-84 61.5t-61.5 79t-23.5 102.5q0 59 34 107.5t82 85.5t96 76.5t82 98.5t34 134q0 99 -65 153t-183 54q-119 0 -190.5 -98t-71.5 -259v-1075h-404z" />
<glyph unicode="&#xe0;" horiz-adv-x="1044" d="M66 178q0 151 137.5 229t394.5 78q6 100 6 166q0 106 -36 150.5t-122 44.5q-62 0 -90 -34.5t-28 -76.5q0 -35 16 -61q-37 -37 -108 -37q-59 0 -91 29t-32 75q0 64 59.5 113.5t150.5 74.5t193 25q159 0 247.5 -79t88.5 -234q0 -59 -9 -197t-9 -196q0 -68 30 -108t84 -40 q19 0 37.5 4t27.5 8l9 3l27 -45q-3 -4 -9.5 -11t-28.5 -25t-46 -31.5t-62.5 -24.5t-79.5 -11q-72 0 -121.5 31t-74.5 76q-28 -8 -75.5 -36.5t-105 -49.5t-129.5 -21q-112 0 -181.5 55.5t-69.5 155.5zM240 1411q0 41 28.5 69.5t71.5 28.5q24 0 39 -6l209 -426l-27 -26 q-36 16 -77 41t-85 61.5t-79 76.5t-57.5 88t-22.5 93zM307 213q0 -56 34 -87.5t99 -31.5q33 0 92 20t72 23q-16 49 -16 125q0 33 2 69t4 55l2 20q-120 0 -204.5 -48.5t-84.5 -144.5z" />
<glyph unicode="&#xe1;" horiz-adv-x="1044" d="M66 178q0 151 137.5 229t394.5 78q6 100 6 166q0 106 -36 150.5t-122 44.5q-62 0 -90 -34.5t-28 -76.5q0 -35 16 -61q-37 -37 -108 -37q-59 0 -91 29t-32 75q0 64 59.5 113.5t150.5 74.5t193 25q159 0 247.5 -79t88.5 -234q0 -59 -9 -197t-9 -196q0 -68 30 -108t84 -40 q19 0 37.5 4t27.5 8l9 3l27 -45q-3 -4 -9.5 -11t-28.5 -25t-46 -31.5t-62.5 -24.5t-79.5 -11q-72 0 -121.5 31t-74.5 76q-28 -8 -75.5 -36.5t-105 -49.5t-129.5 -21q-112 0 -181.5 55.5t-69.5 155.5zM307 213q0 -56 34 -87.5t99 -31.5q33 0 92 20t72 23q-16 49 -16 125 q0 33 2 69t4 55l2 20q-120 0 -204.5 -48.5t-84.5 -144.5zM412 1077l209 426q15 6 38 6q43 0 72 -28.5t29 -69.5q0 -56 -34 -115.5t-85.5 -106.5t-104 -82.5t-98.5 -55.5z" />
<glyph unicode="&#xe2;" horiz-adv-x="1044" d="M66 178q0 151 137.5 229t394.5 78q6 100 6 166q0 106 -36 150.5t-122 44.5q-62 0 -90 -34.5t-28 -76.5q0 -35 16 -61q-37 -37 -108 -37q-59 0 -91 29t-32 75q0 64 59.5 113.5t150.5 74.5t193 25q159 0 247.5 -79t88.5 -234q0 -59 -9 -197t-9 -196q0 -68 30 -108t84 -40 q19 0 37.5 4t27.5 8l9 3l27 -45q-3 -4 -9.5 -11t-28.5 -25t-46 -31.5t-62.5 -24.5t-79.5 -11q-72 0 -121.5 31t-74.5 76q-28 -8 -75.5 -36.5t-105 -49.5t-129.5 -21q-112 0 -181.5 55.5t-69.5 155.5zM164 1145l366 356l351 -352q0 -31 -24.5 -57.5t-72.5 -26.5 q-60 0 -117.5 56.5t-92 124.5t-52.5 132l-207 -317zM307 213q0 -56 34 -87.5t99 -31.5q33 0 92 20t72 23q-16 49 -16 125q0 33 2 69t4 55l2 20q-120 0 -204.5 -48.5t-84.5 -144.5z" />
<glyph unicode="&#xe3;" horiz-adv-x="1044" d="M66 178q0 151 137.5 229t394.5 78q6 100 6 166q0 106 -36 150.5t-122 44.5q-62 0 -90 -34.5t-28 -76.5q0 -35 16 -61q-37 -37 -108 -37q-59 0 -91 29t-32 75q0 64 59.5 113.5t150.5 74.5t193 25q159 0 247.5 -79t88.5 -234q0 -59 -9 -197t-9 -196q0 -68 30 -108t84 -40 q19 0 37.5 4t27.5 8l9 3l27 -45q-3 -4 -9.5 -11t-28.5 -25t-46 -31.5t-62.5 -24.5t-79.5 -11q-72 0 -121.5 31t-74.5 76q-28 -8 -75.5 -36.5t-105 -49.5t-129.5 -21q-112 0 -181.5 55.5t-69.5 155.5zM174 1188q15 95 65 156t138 61q54 0 110 -24.5t106.5 -49t90.5 -24.5 q92 0 133 100l51 -43q-15 -94 -64.5 -154.5t-137.5 -60.5q-50 0 -105 24.5t-107.5 49t-95.5 24.5q-92 0 -133 -100zM307 213q0 -56 34 -87.5t99 -31.5q33 0 92 20t72 23q-16 49 -16 125q0 33 2 69t4 55l2 20q-120 0 -204.5 -48.5t-84.5 -144.5z" />
<glyph unicode="&#xe4;" horiz-adv-x="1044" d="M66 178q0 151 137.5 229t394.5 78q6 100 6 166q0 106 -36 150.5t-122 44.5q-62 0 -90 -34.5t-28 -76.5q0 -35 16 -61q-37 -37 -108 -37q-59 0 -91 29t-32 75q0 64 59.5 113.5t150.5 74.5t193 25q159 0 247.5 -79t88.5 -234q0 -59 -9 -197t-9 -196q0 -68 30 -108t84 -40 q19 0 37.5 4t27.5 8l9 3l27 -45q-3 -4 -9.5 -11t-28.5 -25t-46 -31.5t-62.5 -24.5t-79.5 -11q-72 0 -121.5 31t-74.5 76q-28 -8 -75.5 -36.5t-105 -49.5t-129.5 -21q-112 0 -181.5 55.5t-69.5 155.5zM190 1247q0 57 36.5 94t92.5 37q57 0 94.5 -37t37.5 -94 q0 -56 -37.5 -92.5t-94.5 -36.5q-55 0 -92 37t-37 92zM307 213q0 -56 34 -87.5t99 -31.5q33 0 92 20t72 23q-16 49 -16 125q0 33 2 69t4 55l2 20q-120 0 -204.5 -48.5t-84.5 -144.5zM592 1247q0 57 36.5 94t92.5 37q57 0 94 -37t37 -94q0 -56 -37 -92.5t-94 -36.5 q-55 0 -92 37t-37 92z" />
<glyph unicode="&#xe5;" horiz-adv-x="1044" d="M66 178q0 151 137.5 229t394.5 78q6 100 6 166q0 106 -36 150.5t-122 44.5q-62 0 -90 -34.5t-28 -76.5q0 -35 16 -61q-37 -37 -108 -37q-59 0 -91 29t-32 75q0 64 59.5 113.5t150.5 74.5t193 25q159 0 247.5 -79t88.5 -234q0 -59 -9 -197t-9 -196q0 -68 30 -108t84 -40 q19 0 37.5 4t27.5 8l9 3l27 -45q-3 -4 -9.5 -11t-28.5 -25t-46 -31.5t-62.5 -24.5t-79.5 -11q-72 0 -121.5 31t-74.5 76q-28 -8 -75.5 -36.5t-105 -49.5t-129.5 -21q-112 0 -181.5 55.5t-69.5 155.5zM307 213q0 -56 34 -87.5t99 -31.5q33 0 92 20t72 23q-16 49 -16 125 q0 33 2 69t4 55l2 20q-120 0 -204.5 -48.5t-84.5 -144.5zM317 1307q0 86 64.5 151.5t175.5 65.5q92 0 152.5 -55t60.5 -150q0 -89 -64.5 -154t-175.5 -65q-93 0 -153 55t-60 152zM434 1317q0 -63 34 -100t85 -37q100 0 100 127q0 63 -33.5 100t-84.5 37q-101 0 -101 -127z " />
<glyph unicode="&#xe6;" horiz-adv-x="1511" d="M66 178q0 151 138.5 229t395.5 78q4 100 4 166q0 106 -36 150.5t-122 44.5q-62 0 -90 -34.5t-28 -76.5q0 -35 16 -61q-37 -37 -108 -37q-59 0 -91 29t-32 75q0 64 59.5 113.5t150.5 74.5t193 25q86 0 163 -35t105 -92q137 127 336 127q175 0 262.5 -96.5t87.5 -257.5 l-47 -57l-585 8q-4 -35 -4 -72q0 -71 19.5 -133t60 -113.5t110.5 -81.5t162 -30q110 0 231 37l29 -54q-83 -70 -175 -103.5t-218 -33.5q-195 0 -320 119q-28 -3 -71 -22t-84.5 -40.5t-109 -39t-138.5 -17.5q-114 0 -189 56t-75 155zM307 213q0 -55 40 -88t108 -33 q47 0 127.5 26t97.5 29q-74 110 -80 261q-76 -1 -140 -20.5t-108.5 -65t-44.5 -109.5zM848 631l383 22q2 10 2 33q0 21 -2.5 41t-11.5 46t-24 44.5t-43.5 31.5t-66.5 13q-89 0 -153 -63t-84 -168z" />
<glyph unicode="&#xe7;" horiz-adv-x="974" d="M51 432q0 160 76 280.5t200 181t275 60.5q54 0 108.5 -9.5t105.5 -29t82.5 -55t31.5 -82.5q0 -52 -41.5 -83t-95.5 -31q-56 0 -78 16q6 27 6 53q0 63 -43 94t-113 31q-111 0 -177 -108t-66 -271q0 -188 86.5 -275t234.5 -87q101 0 219 43l27 -51q-83 -67 -158 -101 t-192 -39q-23 -26 -23 -57q0 -23 17.5 -44t43 -38.5t51 -38t43 -52t17.5 -71.5q0 -72 -74 -120t-184 -48q-75 0 -126.5 31t-51.5 82q0 37 24.5 60.5t61.5 23.5q31 0 49 -12q-16 -22 -16 -50q0 -24 20.5 -42.5t61.5 -18.5q40 0 65 15.5t25 37.5t-15.5 41t-37.5 35t-44 34.5 t-37.5 47.5t-15.5 65q0 69 62 119q-180 12 -292 135t-112 328z" />
<glyph unicode="&#xe8;" horiz-adv-x="972" d="M51 432q0 150 72 270.5t193 186t266 65.5q175 0 262.5 -96.5t87.5 -257.5l-47 -57l-586 8q-4 -35 -4 -72q0 -71 19.5 -133t60 -113.5t110.5 -81.5t162 -30q111 0 232 37l28 -54q-83 -71 -175 -104t-228 -33q-199 0 -326 127t-127 338zM283 1411q0 41 28.5 69.5t71.5 28.5 q24 0 39 -6l209 -426l-27 -26q-36 16 -77 41t-85 61.5t-79 76.5t-57.5 88t-22.5 93zM309 631l383 22q2 10 2 33q0 22 -2.5 41.5t-11.5 45.5t-24 44.5t-43 31.5t-66 13q-89 0 -153.5 -63t-84.5 -168z" />
<glyph unicode="&#xe9;" horiz-adv-x="972" d="M51 432q0 150 72 270.5t193 186t266 65.5q175 0 262.5 -96.5t87.5 -257.5l-47 -57l-586 8q-4 -35 -4 -72q0 -71 19.5 -133t60 -113.5t110.5 -81.5t162 -30q111 0 232 37l28 -54q-83 -71 -175 -104t-228 -33q-199 0 -326 127t-127 338zM309 631l383 22q2 10 2 33 q0 22 -2.5 41.5t-11.5 45.5t-24 44.5t-43 31.5t-66 13q-89 0 -153.5 -63t-84.5 -168zM465 1077l209 426q15 6 39 6q43 0 71.5 -28.5t28.5 -69.5q0 -45 -22.5 -93t-57.5 -88t-79 -76.5t-85 -61.5t-77 -41z" />
<glyph unicode="&#xea;" horiz-adv-x="972" d="M51 432q0 150 72 270.5t193 186t266 65.5q175 0 262.5 -96.5t87.5 -257.5l-47 -57l-586 8q-4 -35 -4 -72q0 -71 19.5 -133t60 -113.5t110.5 -81.5t162 -30q111 0 232 37l28 -54q-83 -71 -175 -104t-228 -33q-199 0 -326 127t-127 338zM213 1145l367 356l350 -352 q0 -31 -24 -57.5t-72 -26.5q-60 0 -118 56.5t-92.5 124.5t-52.5 132l-206 -317zM309 631l383 22q2 10 2 33q0 22 -2.5 41.5t-11.5 45.5t-24 44.5t-43 31.5t-66 13q-89 0 -153.5 -63t-84.5 -168z" />
<glyph unicode="&#xeb;" horiz-adv-x="972" d="M51 432q0 150 72 270.5t193 186t266 65.5q175 0 262.5 -96.5t87.5 -257.5l-47 -57l-586 8q-4 -35 -4 -72q0 -71 19.5 -133t60 -113.5t110.5 -81.5t162 -30q111 0 232 37l28 -54q-83 -71 -175 -104t-228 -33q-199 0 -326 127t-127 338zM244 1247q0 57 36.5 94t92.5 37 q57 0 94 -37t37 -94q0 -56 -37 -92.5t-94 -36.5q-55 0 -92 37t-37 92zM309 631l383 22q2 10 2 33q0 22 -2.5 41.5t-11.5 45.5t-24 44.5t-43 31.5t-66 13q-89 0 -153.5 -63t-84.5 -168zM645 1247q0 57 36.5 94t92.5 37q57 0 94 -37t37 -94q0 -56 -37 -92.5t-94 -36.5 q-56 0 -92.5 37t-36.5 92z" />
<glyph unicode="&#xec;" horiz-adv-x="690" d="M82 1411q0 41 28.5 69.5t71.5 28.5q24 0 39 -6l209 -426l-27 -26q-36 16 -77 41t-85 61.5t-79 76.5t-57.5 88t-22.5 93zM100 0v68l41 6q52 8 80.5 41t28.5 86v475q0 60 -31.5 86t-101.5 26l-17 62q88 8 187 33.5t154 46.5l55 22v-768q0 -56 15.5 -78t53.5 -28l62 -10v-68 q-127 6 -260 6z" />
<glyph unicode="&#xed;" horiz-adv-x="690" d="M100 0v68l41 6q52 8 80.5 41t28.5 86v475q0 60 -31.5 86t-101.5 26l-17 62q88 8 187 33.5t154 46.5l55 22v-768q0 -56 15.5 -78t53.5 -28l62 -10v-68q-127 6 -260 6zM266 1077l209 426q15 6 39 6q43 0 71.5 -28.5t28.5 -69.5q0 -45 -22.5 -93t-57.5 -88t-79 -76.5 t-85 -61.5t-77 -41z" />
<glyph unicode="&#xee;" horiz-adv-x="690" d="M-12 1145l366 356l351 -352q0 -31 -24.5 -57.5t-72.5 -26.5q-60 0 -117.5 56.5t-92 124.5t-52.5 132l-207 -317zM100 0v68l41 6q52 8 80.5 41t28.5 86v475q0 60 -31.5 86t-101.5 26l-17 62q88 8 187 33.5t154 46.5l55 22v-768q0 -56 15.5 -78t53.5 -28l62 -10v-68 q-127 6 -260 6z" />
<glyph unicode="&#xef;" horiz-adv-x="690" d="M33 1247q0 57 36.5 94t92.5 37q57 0 94 -37t37 -94q0 -56 -37 -92.5t-94 -36.5q-56 0 -92.5 37t-36.5 92zM100 0v68l41 6q52 8 80.5 41t28.5 86v475q0 60 -31.5 86t-101.5 26l-17 62q88 8 187 33.5t154 46.5l55 22v-768q0 -56 15.5 -78t53.5 -28l62 -10v-68 q-127 6 -260 6zM434 1247q0 57 36.5 94t92.5 37q57 0 94 -37t37 -94q0 -56 -37 -92.5t-94 -36.5q-55 0 -92 37t-37 92z" />
<glyph unicode="&#xf0;" horiz-adv-x="1138" d="M51 432q0 143 62.5 260.5t186 189.5t286.5 72q149 0 254 -75q-7 92 -43 184.5t-84 161.5l-209 -97l-45 93l188 84q-131 126 -377 172l62 79q112 -7 235.5 -60.5t216.5 -133.5l228 104l45 -92l-199 -90q118 -134 173.5 -318t55.5 -376q0 -281 -146 -452t-402 -171 q-215 0 -351.5 130.5t-136.5 334.5zM322 479q0 -101 33 -195.5t96 -157.5t141 -63q57 0 101.5 32t71.5 86.5t40.5 121t13.5 139.5q0 101 -33 195.5t-96.5 157.5t-142.5 63q-56 0 -100.5 -32.5t-71 -87t-40 -120.5t-13.5 -139z" />
<glyph unicode="&#xf1;" horiz-adv-x="1232" d="M53 0v68l43 6q50 8 79.5 41t29.5 86v475q0 59 -32.5 85.5t-100.5 26.5l-19 62q88 8 187 33.5t154 46.5l55 22v-149q27 8 67 34.5t74.5 51.5t89.5 45t113 20q128 0 197 -74t69 -198v-498q0 -56 16 -78t53 -28l64 -10v-68q-129 6 -260 6q-62 0 -123.5 -1.5t-92.5 -2.5 l-30 -2v68l27 6q48 9 74 42t26 85v444q0 154 -151 154q-43 0 -116.5 -37t-96.5 -39v-539q0 -56 16 -78t53 -28l64 -10v-68q-129 6 -260 6zM289 1188q15 95 65 156t138 61q54 0 110 -24.5t106.5 -49t90.5 -24.5q92 0 133 100l51 -43q-15 -94 -65 -154.5t-138 -60.5 q-50 0 -105 24.5t-107 49t-95 24.5q-92 0 -133 -100z" />
<glyph unicode="&#xf2;" horiz-adv-x="1138" d="M51 432q0 143 64 260.5t191 189.5t296 72q215 0 350 -130t135 -335q0 -106 -37.5 -201t-106 -166.5t-173.5 -113t-231 -41.5q-215 0 -351.5 130.5t-136.5 334.5zM317 1411q0 41 28.5 69.5t72.5 28.5q24 0 39 -6l209 -426l-27 -26q-46 20 -98.5 55.5t-104 82.5 t-85.5 106.5t-34 115.5zM322 479q0 -101 33 -195t96 -156t141 -62q75 0 128 55.5t76 138t23 182.5q0 101 -33 195t-96.5 156.5t-142.5 62.5q-56 0 -100.5 -32t-71 -86.5t-40 -120t-13.5 -138.5z" />
<glyph unicode="&#xf3;" horiz-adv-x="1138" d="M51 432q0 143 64 260.5t191 189.5t296 72q215 0 350 -130t135 -335q0 -106 -37.5 -201t-106 -166.5t-173.5 -113t-231 -41.5q-215 0 -351.5 130.5t-136.5 334.5zM322 479q0 -101 33 -195t96 -156t141 -62q75 0 128 55.5t76 138t23 182.5q0 101 -33 195t-96.5 156.5 t-142.5 62.5q-56 0 -100.5 -32t-71 -86.5t-40 -120t-13.5 -138.5zM502 1077l209 426q15 6 39 6q43 0 71.5 -28.5t28.5 -69.5q0 -56 -34 -115.5t-85.5 -106.5t-104 -82.5t-98.5 -55.5z" />
<glyph unicode="&#xf4;" horiz-adv-x="1138" d="M51 432q0 143 64 260.5t191 189.5t296 72q215 0 350 -130t135 -335q0 -106 -37.5 -201t-106 -166.5t-173.5 -113t-231 -41.5q-215 0 -351.5 130.5t-136.5 334.5zM219 1145l367 356l350 -352q0 -31 -24 -57.5t-72 -26.5q-60 0 -117.5 56.5t-92 124.5t-52.5 132l-207 -317z M322 479q0 -101 33 -195t96 -156t141 -62q75 0 128 55.5t76 138t23 182.5q0 101 -33 195t-96.5 156.5t-142.5 62.5q-56 0 -100.5 -32t-71 -86.5t-40 -120t-13.5 -138.5z" />
<glyph unicode="&#xf5;" horiz-adv-x="1138" d="M51 432q0 143 64 260.5t191 189.5t296 72q215 0 350 -130t135 -335q0 -106 -37.5 -201t-106 -166.5t-173.5 -113t-231 -41.5q-215 0 -351.5 130.5t-136.5 334.5zM242 1188q15 95 64.5 156t137.5 61q54 0 110 -24.5t107 -49t91 -24.5q92 0 133 100l51 -43 q-15 -94 -65 -154.5t-138 -60.5q-50 0 -105 24.5t-107 49t-95 24.5q-92 0 -133 -100zM322 479q0 -101 33 -195t96 -156t141 -62q75 0 128 55.5t76 138t23 182.5q0 101 -33 195t-96.5 156.5t-142.5 62.5q-56 0 -100.5 -32t-71 -86.5t-40 -120t-13.5 -138.5z" />
<glyph unicode="&#xf6;" horiz-adv-x="1138" d="M51 432q0 143 64 260.5t191 189.5t296 72q215 0 350 -130t135 -335q0 -106 -37.5 -201t-106 -166.5t-173.5 -113t-231 -41.5q-215 0 -351.5 130.5t-136.5 334.5zM252 1247q0 57 36.5 94t92.5 37q57 0 94 -37t37 -94q0 -56 -37 -92.5t-94 -36.5q-55 0 -92 37t-37 92z M322 479q0 -101 33 -195t96 -156t141 -62q75 0 128 55.5t76 138t23 182.5q0 101 -33 195t-96.5 156.5t-142.5 62.5q-56 0 -100.5 -32t-71 -86.5t-40 -120t-13.5 -138.5zM653 1247q0 57 36.5 94t92.5 37q57 0 94 -37t37 -94q0 -56 -37 -92.5t-94 -36.5q-56 0 -92.5 37 t-36.5 92z" />
<glyph unicode="&#xf7;" horiz-adv-x="931" d="M0 360v183h932v-183h-932zM313 121q0 64 44.5 108.5t109.5 44.5t109.5 -44.5t44.5 -108.5q0 -65 -44.5 -109.5t-109.5 -44.5t-109.5 44.5t-44.5 109.5zM313 782q0 64 44.5 109t109.5 45t109.5 -45t44.5 -109t-44.5 -108.5t-109.5 -44.5t-109.5 44.5t-44.5 108.5z" />
<glyph unicode="&#xf8;" horiz-adv-x="1138" d="M29 -33q59 60 141 148q-119 125 -119 317q0 143 64 260.5t191 189.5t296 72q143 0 256 -61l55 59h197q-61 -59 -143 -143q120 -126 120 -320q0 -106 -37.5 -201t-106 -166.5t-173.5 -113t-231 -41.5q-147 0 -263 64l-53 -64h-194zM322 479q0 -91 24 -170q153 167 381 439 q-73 110 -180 110q-56 0 -100.5 -32.5t-71 -87t-40 -120.5t-13.5 -139zM403 182q78 -119 189 -119q57 0 101.5 32t71.5 86.5t40.5 121t13.5 139.5q0 79 -28 179q-63 -68 -388 -439z" />
<glyph unicode="&#xf9;" horiz-adv-x="1198" d="M43 840v67l358 33l19 -18v-646q0 -153 162 -153q37 0 75 16.5t71 36t52 23.5v512q0 64 -28 96.5t-105 32.5v67l361 33l16 -18v-680q0 -58 32 -84.5t101 -26.5l17 -61q-88 -9 -183.5 -34.5t-147.5 -47.5l-52 -21l-11 150q-26 -6 -64.5 -31t-73.5 -51t-90 -47t-112 -21 q-128 0 -197 74t-69 199v485q0 59 -29.5 87t-101.5 28zM326 1411q0 41 28.5 69.5t71.5 28.5q24 0 39 -6l209 -426l-27 -26q-36 16 -77 41t-85 61.5t-79 76.5t-57.5 88t-22.5 93z" />
<glyph unicode="&#xfa;" horiz-adv-x="1198" d="M43 840v67l358 33l19 -18v-646q0 -153 162 -153q37 0 75 16.5t71 36t52 23.5v512q0 64 -28 96.5t-105 32.5v67l361 33l16 -18v-680q0 -58 32 -84.5t101 -26.5l17 -61q-88 -9 -183.5 -34.5t-147.5 -47.5l-52 -21l-11 150q-26 -6 -64.5 -31t-73.5 -51t-90 -47t-112 -21 q-128 0 -197 74t-69 199v485q0 59 -29.5 87t-101.5 28zM516 1077l209 426q15 6 39 6q43 0 71.5 -28.5t28.5 -69.5q0 -45 -22.5 -93t-57.5 -88t-79 -76.5t-85 -61.5t-77 -41z" />
<glyph unicode="&#xfb;" horiz-adv-x="1198" d="M43 840v67l358 33l19 -18v-646q0 -153 162 -153q37 0 75 16.5t71 36t52 23.5v512q0 64 -28 96.5t-105 32.5v67l361 33l16 -18v-680q0 -58 32 -84.5t101 -26.5l17 -61q-88 -9 -183.5 -34.5t-147.5 -47.5l-52 -21l-11 150q-26 -6 -64.5 -31t-73.5 -51t-90 -47t-112 -21 q-128 0 -197 74t-69 199v485q0 59 -29.5 87t-101.5 28zM240 1145l366 356l350 -352q0 -31 -24 -57.5t-72 -26.5q-60 0 -117.5 56.5t-92 124.5t-52.5 132l-207 -317z" />
<glyph unicode="&#xfc;" horiz-adv-x="1198" d="M43 840v67l358 33l19 -18v-646q0 -153 162 -153q37 0 75 16.5t71 36t52 23.5v512q0 64 -28 96.5t-105 32.5v67l361 33l16 -18v-680q0 -58 32 -84.5t101 -26.5l17 -61q-88 -9 -183.5 -34.5t-147.5 -47.5l-52 -21l-11 150q-26 -6 -64.5 -31t-73.5 -51t-90 -47t-112 -21 q-128 0 -197 74t-69 199v485q0 59 -29.5 87t-101.5 28zM268 1247q0 57 36.5 94t92.5 37q57 0 94 -37t37 -94q0 -56 -37 -92.5t-94 -36.5q-55 0 -92 37t-37 92zM670 1247q0 57 36.5 94t92.5 37q57 0 94 -37t37 -94q0 -56 -37 -92.5t-94 -36.5q-55 0 -92 37t-37 92z" />
<glyph unicode="&#xfd;" horiz-adv-x="1077" d="M-76 -311q0 46 31.5 79t91.5 33q24 0 47 -6q-4 -16 -4 -24q0 -33 25 -52.5t67 -19.5q144 0 224 184l49 115l-285 731q-23 58 -45.5 82.5t-58.5 32.5l-43 10v68q127 -9 258 -9q59 0 119.5 2.5t91.5 4.5l30 2v-68l-41 -10q-35 -8 -52 -21t-17 -37q0 -6 10 -41l160 -473 l176 435q24 63 24 86q0 38 -59 51l-43 10v68q102 -7 190 -7l185 7v-68l-43 -10q-53 -11 -85.5 -47t-62.5 -105l-354 -835q-21 -50 -46 -93t-60.5 -84.5t-76.5 -70.5t-94.5 -46.5t-113.5 -17.5q-94 0 -144.5 40.5t-50.5 103.5zM512 1077l209 426q15 6 39 6q43 0 71.5 -28.5 t28.5 -69.5q0 -45 -22.5 -93t-57.5 -88t-79 -76.5t-85 -61.5t-77 -41z" />
<glyph unicode="&#xfe;" horiz-adv-x="1232" d="M72 1434q88 8 187 33.5t153 46.5l55 22l2 -702q25 6 58.5 26.5t63.5 40.5t81 36.5t110 16.5q168 0 284 -136t116 -329q0 -143 -64 -260.5t-190.5 -189.5t-294.5 -72q-85 0 -164 15v-320q0 -47 28 -68t74 -28l62 -10v-68h-559v68l43 6q106 16 106 127v1571q0 59 -32 84.5 t-101 25.5zM469 248q0 -91 52.5 -138t140.5 -47q113 0 182 107t69 272q0 159 -66.5 260t-189.5 101q-41 0 -105 -25.5t-83 -27.5v-502z" />
<glyph unicode="&#xff;" horiz-adv-x="1077" d="M-76 -311q0 46 31.5 79t91.5 33q24 0 47 -6q-4 -16 -4 -24q0 -33 25 -52.5t67 -19.5q144 0 224 184l49 115l-285 731q-23 58 -45.5 82.5t-58.5 32.5l-43 10v68q127 -9 258 -9q59 0 119.5 2.5t91.5 4.5l30 2v-68l-41 -10q-35 -8 -52 -21t-17 -37q0 -6 10 -41l160 -473 l176 435q24 63 24 86q0 38 -59 51l-43 10v68q102 -7 190 -7l185 7v-68l-43 -10q-53 -11 -85.5 -47t-62.5 -105l-354 -835q-21 -50 -46 -93t-60.5 -84.5t-76.5 -70.5t-94.5 -46.5t-113.5 -17.5q-94 0 -144.5 40.5t-50.5 103.5zM281 1247q0 57 36.5 94t92.5 37q57 0 94 -37 t37 -94q0 -56 -37 -92.5t-94 -36.5q-56 0 -92.5 37t-36.5 92zM682 1247q0 57 36.5 94t92.5 37q57 0 94 -37t37 -94q0 -56 -37 -92.5t-94 -36.5q-55 0 -92 37t-37 92z" />
<glyph unicode="&#x100;" horiz-adv-x="1542" d="M29 0v74l37 10q129 36 186 192l436 1170l172 20l438 -1210q29 -80 72 -118.5t103 -53.5l40 -10v-74q-110 8 -292 8q-93 0 -178 -2t-123 -4l-39 -2v74l41 10q100 25 100 113q0 25 -14 69l-88 260h-453l-88 -254q-19 -59 -19 -90q0 -41 28 -64.5t93 -33.5l62 -10v-74 q-138 8 -275 8q-51 0 -111 -2t-94 -4zM487 1626v162q166 -6 299 -6l299 6v-162q-149 6 -299 6zM508 641h373l-185 539z" />
<glyph unicode="&#x101;" horiz-adv-x="1044" d="M66 178q0 151 137.5 229t394.5 78q6 100 6 166q0 106 -36 150.5t-122 44.5q-62 0 -90 -34.5t-28 -76.5q0 -35 16 -61q-37 -37 -108 -37q-59 0 -91 29t-32 75q0 64 59.5 113.5t150.5 74.5t193 25q159 0 247.5 -79t88.5 -234q0 -59 -9 -197t-9 -196q0 -68 30 -108t84 -40 q19 0 37.5 4t27.5 8l9 3l27 -45q-3 -4 -9.5 -11t-28.5 -25t-46 -31.5t-62.5 -24.5t-79.5 -11q-72 0 -121.5 31t-74.5 76q-28 -8 -75.5 -36.5t-105 -49.5t-129.5 -21q-112 0 -181.5 55.5t-69.5 155.5zM244 1178v161q158 -6 291 -6l290 6v-161q-140 6 -290 6zM307 213 q0 -56 34 -87.5t99 -31.5q33 0 92 20t72 23q-16 49 -16 125q0 33 2 69t4 55l2 20q-120 0 -204.5 -48.5t-84.5 -144.5z" />
<glyph unicode="&#x102;" horiz-adv-x="1542" d="M29 0v74l37 10q129 36 186 192l436 1170l172 20l438 -1210q29 -80 72 -118.5t103 -53.5l40 -10v-74q-110 8 -292 8q-93 0 -178 -2t-123 -4l-39 -2v74l41 10q100 25 100 113q0 25 -14 69l-88 260h-453l-88 -254q-19 -59 -19 -90q0 -41 28 -64.5t93 -33.5l62 -10v-74 q-138 8 -275 8q-51 0 -111 -2t-94 -4zM446 1876h183q0 -195 170 -195q95 0 145.5 50.5t50.5 144.5h88q0 -163 -83.5 -251.5t-225.5 -88.5q-153 0 -240.5 86.5t-87.5 253.5zM508 641h373l-185 539z" />
<glyph unicode="&#x103;" horiz-adv-x="1044" d="M66 178q0 151 137.5 229t394.5 78q6 100 6 166q0 106 -36 150.5t-122 44.5q-62 0 -90 -34.5t-28 -76.5q0 -35 16 -61q-37 -37 -108 -37q-59 0 -91 29t-32 75q0 64 59.5 113.5t150.5 74.5t193 25q159 0 247.5 -79t88.5 -234q0 -59 -9 -197t-9 -196q0 -68 30 -108t84 -40 q19 0 37.5 4t27.5 8l9 3l27 -45q-3 -4 -9.5 -11t-28.5 -25t-46 -31.5t-62.5 -24.5t-79.5 -11q-72 0 -121.5 31t-74.5 76q-28 -8 -75.5 -36.5t-105 -49.5t-129.5 -21q-112 0 -181.5 55.5t-69.5 155.5zM190 1436h183q0 -195 166 -195q95 0 144.5 50.5t49.5 144.5h88 q0 -163 -82.5 -251.5t-224.5 -88.5q-150 0 -237 87t-87 253zM307 213q0 -56 34 -87.5t99 -31.5q33 0 92 20t72 23q-16 49 -16 125q0 33 2 69t4 55l2 20q-120 0 -204.5 -48.5t-84.5 -144.5z" />
<glyph unicode="&#x104;" horiz-adv-x="1542" d="M29 0v74l37 10q129 36 186 192l436 1170l172 20l438 -1210q29 -80 72 -118.5t103 -53.5l40 -10v-74q-123 -56 -189.5 -129.5t-66.5 -149.5q0 -52 28 -83t81 -31q32 0 58.5 12t39.5 29q24 -6 36.5 -23t12.5 -37q0 -40 -49.5 -73t-140.5 -33q-113 0 -177.5 49.5 t-64.5 142.5q0 61 28.5 115.5t77 94.5t95.5 67.5t100 48.5q-102 8 -204 8q-81 0 -155 -2t-108 -4l-34 -2v74l41 10q100 25 100 113q0 25 -14 69l-88 260h-453l-88 -254q-19 -59 -19 -90q0 -41 28 -64.5t93 -33.5l62 -10v-74q-138 8 -275 8q-51 0 -111 -2t-94 -4zM508 641 h373l-185 539z" />
<glyph unicode="&#x105;" horiz-adv-x="1044" d="M66 178q0 151 137.5 229t394.5 78q6 100 6 166q0 106 -36 150.5t-122 44.5q-62 0 -90 -34.5t-28 -76.5q0 -35 16 -61q-37 -37 -108 -37q-59 0 -91 29t-32 75q0 64 59.5 113.5t150.5 74.5t193 25q159 0 247.5 -79t88.5 -234q0 -59 -9 -197t-9 -196q0 -68 30 -108t84 -40 q19 0 37.5 4t27.5 8l9 3l27 -45q-141 -103 -206 -181.5t-65 -152.5q0 -51 34.5 -83t88.5 -32q32 0 58.5 12t39.5 29q24 -6 37 -23t13 -36q0 -37 -49 -74t-142 -37q-115 0 -180.5 54t-65.5 149q0 145 183 274q-61 6 -104 35.5t-64 69.5q-28 -8 -75.5 -36.5t-105 -49.5 t-129.5 -21q-112 0 -181.5 55.5t-69.5 155.5zM307 213q0 -56 34 -87.5t99 -31.5q33 0 92 20t72 23q-16 49 -16 125q0 33 2 69t4 55l2 20q-120 0 -204.5 -48.5t-84.5 -144.5z" />
<glyph unicode="&#x106;" horiz-adv-x="1478" d="M59 680q0 123 34 238t102.5 213.5t164.5 172.5t227.5 116t282.5 42q108 0 255 -27.5t249 -27.5v-383h-67q-33 153 -148 244.5t-311 91.5q-227 0 -355 -167.5t-128 -449.5q0 -108 21 -206t65.5 -183.5t108.5 -148.5t156 -99t202 -36q85 0 155 29t114.5 77t71.5 102.5 t39 114.5l68 -8l-37 -340q-85 0 -163 -19.5t-166 -39t-197 -19.5q-160 0 -295.5 47.5t-235.5 136.5t-156.5 225t-56.5 304zM760 1583l149 328q15 6 39 6q40 0 66 -28.5t26 -71.5q0 -73 -77.5 -145.5t-178.5 -110.5z" />
<glyph unicode="&#x107;" horiz-adv-x="974" d="M51 432q0 160 76 280.5t200 181t275 60.5q88 0 160 -19.5t120 -63.5t48 -107q0 -55 -37.5 -87t-99.5 -32q-49 0 -78 21q6 27 6 53q0 64 -44 101.5t-112 37.5q-111 0 -177 -108t-66 -271q0 -188 86.5 -275t234.5 -87q101 0 219 43l27 -51q-88 -72 -172 -107t-219 -35 q-197 0 -322 124t-125 341zM422 1077l209 426q15 6 39 6q43 0 71.5 -28.5t28.5 -69.5q0 -45 -22.5 -93t-57.5 -88t-79 -76.5t-85 -61.5t-77 -41z" />
<glyph unicode="&#x108;" horiz-adv-x="1478" d="M59 680q0 123 34 238t102.5 213.5t164.5 172.5t227.5 116t282.5 42q108 0 255 -27.5t249 -27.5v-383h-67q-33 153 -148 244.5t-311 91.5q-227 0 -355 -167.5t-128 -449.5q0 -108 21 -206t65.5 -183.5t108.5 -148.5t156 -99t202 -36q85 0 155 29t114.5 77t71.5 102.5 t39 114.5l68 -8l-37 -340q-85 0 -163 -19.5t-166 -39t-197 -19.5q-160 0 -295.5 47.5t-235.5 136.5t-156.5 225t-56.5 304zM502 1606l360 282l350 -280q0 -33 -22.5 -58.5t-73.5 -25.5q-61 0 -117.5 41.5t-92.5 98t-52 116.5l-213 -262z" />
<glyph unicode="&#x109;" horiz-adv-x="974" d="M51 432q0 160 76 280.5t200 181t275 60.5q88 0 160 -19.5t120 -63.5t48 -107q0 -55 -37.5 -87t-99.5 -32q-49 0 -78 21q6 27 6 53q0 64 -44 101.5t-112 37.5q-111 0 -177 -108t-66 -271q0 -188 86.5 -275t234.5 -87q101 0 219 43l27 -51q-88 -72 -172 -107t-219 -35 q-197 0 -322 124t-125 341zM252 1145l366 356l351 -352q0 -31 -24.5 -57.5t-72.5 -26.5q-60 0 -117.5 56.5t-92 124.5t-52.5 132l-207 -317z" />
<glyph unicode="&#x10a;" horiz-adv-x="1478" d="M59 680q0 123 34 238t102.5 213.5t164.5 172.5t227.5 116t282.5 42q108 0 255 -27.5t249 -27.5v-383h-67q-33 153 -148 244.5t-311 91.5q-227 0 -355 -167.5t-128 -449.5q0 -108 21 -206t65.5 -183.5t108.5 -148.5t156 -99t202 -36q85 0 155 29t114.5 77t71.5 102.5 t39 114.5l68 -8l-37 -340q-85 0 -163 -19.5t-166 -39t-197 -19.5q-160 0 -295.5 47.5t-235.5 136.5t-156.5 225t-56.5 304zM719 1733q0 63 45.5 108t109.5 45q63 0 108.5 -45t45.5 -108t-45.5 -109.5t-108.5 -46.5q-64 0 -109.5 46.5t-45.5 109.5z" />
<glyph unicode="&#x10b;" horiz-adv-x="974" d="M51 432q0 160 76 280.5t200 181t275 60.5q88 0 160 -19.5t120 -63.5t48 -107q0 -55 -37.5 -87t-99.5 -32q-49 0 -78 21q6 27 6 53q0 64 -44 101.5t-112 37.5q-111 0 -177 -108t-66 -271q0 -188 86.5 -275t234.5 -87q101 0 219 43l27 -51q-88 -72 -172 -107t-219 -35 q-197 0 -322 124t-125 341zM430 1341q0 60 43 101t107 41q62 0 104.5 -41t42.5 -101q0 -61 -42.5 -103t-104.5 -42q-64 0 -107 41.5t-43 103.5z" />
<glyph unicode="&#x10c;" horiz-adv-x="1478" d="M59 680q0 123 34 238t102.5 213.5t164.5 172.5t227.5 116t282.5 42q108 0 255 -27.5t249 -27.5v-383h-67q-33 153 -148 244.5t-311 91.5q-227 0 -355 -167.5t-128 -449.5q0 -108 21 -206t65.5 -183.5t108.5 -148.5t156 -99t202 -36q85 0 155 29t114.5 77t71.5 102.5 t39 114.5l68 -8l-37 -340q-85 0 -163 -19.5t-166 -39t-197 -19.5q-160 0 -295.5 47.5t-235.5 136.5t-156.5 225t-56.5 304zM522 1800l140 88l212 -262q16 60 52 116.5t93 98t118 41.5q51 0 73.5 -25.5t22.5 -58.5l-350 -280z" />
<glyph unicode="&#x10d;" horiz-adv-x="974" d="M51 432q0 160 76 280.5t200 181t275 60.5q88 0 160 -19.5t120 -63.5t48 -107q0 -55 -37.5 -87t-99.5 -32q-49 0 -78 21q6 27 6 53q0 64 -44 101.5t-112 37.5q-111 0 -177 -108t-66 -271q0 -188 86.5 -275t234.5 -87q101 0 219 43l27 -51q-88 -72 -172 -107t-219 -35 q-197 0 -322 124t-125 341zM258 1432l152 84l206 -318q18 64 52.5 132t92.5 124.5t118 56.5q48 0 72 -26.5t24 -57.5l-350 -352z" />
<glyph unicode="&#x10e;" horiz-adv-x="1624" d="M76 0v74l49 10q131 26 131 188v938q0 76 -22.5 102.5t-92.5 37.5l-63 10v74q183 -9 328 -9q88 0 233.5 4.5t191.5 4.5q147 0 278.5 -45t233.5 -129t162 -216t60 -294q0 -151 -57.5 -286.5t-161.5 -239t-262 -164t-347 -60.5q-63 0 -168.5 4t-179.5 4q-72 0 -150.5 -2 t-120.5 -4zM471 1800l139 88l213 -262q16 60 52 116.5t92.5 98t117.5 41.5q51 0 74 -25.5t23 -58.5l-351 -280zM539 223q0 -139 163 -139q129 0 228 33.5t160.5 89t100.5 135t54 163t15 181.5q0 303 -162 483.5t-428 180.5q-92 0 -131 -13v-1114z" />
<glyph unicode="&#x10f;" horiz-adv-x="1306" d="M51 432q0 143 64 260.5t191 189.5t296 72q91 0 162 -14v320q0 59 -31.5 84.5t-101.5 25.5l-17 64q88 8 187 33.5t154 46.5l55 22v-1294q0 -58 32 -84.5t101 -26.5l16 -61q-88 -9 -184.5 -34.5t-149.5 -47.5l-53 -21l-8 121q-24 -6 -57.5 -26.5t-63.5 -41t-81.5 -37 t-110.5 -16.5q-168 0 -284 136t-116 329zM322 479q0 -161 67 -260.5t199 -99.5q39 0 98.5 25.5t77.5 27.5v500q0 92 -51.5 139t-139.5 47q-113 0 -182 -107t-69 -272zM1102 1427q0 50 32 79.5t76 29.5q54 0 86.5 -42t32.5 -108q0 -74 -47 -174t-117 -180l-45 21 q40 93 39 188.5t-57 185.5z" />
<glyph unicode="&#x110;" horiz-adv-x="1624" d="M31 645v135q123 -2 225 -2v432q0 76 -22.5 102.5t-92.5 37.5l-63 10v74q183 -9 328 -9q88 0 233.5 4.5t191.5 4.5q147 0 278.5 -45t233.5 -129t162 -216t60 -294q0 -151 -57.5 -286.5t-161.5 -239t-262 -164t-347 -60.5q-63 0 -168.5 4t-179.5 4q-72 0 -150.5 -2 t-120.5 -4l-42 -2v74l49 10q131 26 131 188v373h-225zM539 223q0 -139 163 -139q129 0 228 33.5t160.5 89t100.5 135t54 163t15 181.5q0 303 -162 483.5t-428 180.5q-92 0 -131 -13v-559q69 0 176 1t116 1v-135h-292v-422z" />
<glyph unicode="&#x111;" d="M51 432q0 143 64 260.5t191 189.5t296 72q91 0 162 -14v166l-332 -6v133q195 -6 332 -6v33q0 59 -31.5 84.5t-101.5 25.5l-17 64q88 8 187 33.5t154 46.5l55 22v-307l168 4v-133q-88 0 -168 2v-860q0 -58 32 -84.5t101 -26.5l16 -61q-88 -9 -184.5 -34.5t-149.5 -47.5 l-53 -21l-8 121q-24 -6 -57.5 -26.5t-63.5 -41t-81.5 -37t-110.5 -16.5q-168 0 -284 136t-116 329zM322 479q0 -161 67 -260.5t199 -99.5q39 0 98.5 25.5t77.5 27.5v500q0 92 -51.5 139t-139.5 47q-113 0 -182 -107t-69 -272z" />
<glyph unicode="&#x112;" d="M76 0v74l49 10q131 26 131 188v938q0 76 -22.5 102.5t-92.5 37.5l-63 10v74q195 -9 340 -9l661 9v-336h-67q-16 114 -104 183t-242 69q-88 0 -127 -13v-557h131q153 0 176 146l14 94h74q-8 -133 -8 -262q0 -51 2 -111.5t4 -95.5l2 -35h-76l-12 51q-12 53 -48 79t-102 26 h-157v-455q0 -133 166 -133q135 0 226.5 83.5t137.5 221.5l68 -8l-68 -381q-451 8 -668 8q-72 0 -153 -2t-126 -4zM350 1626v162q166 -6 299 -6l299 6v-162q-149 6 -299 6z" />
<glyph unicode="&#x113;" horiz-adv-x="972" d="M51 432q0 150 72 270.5t193 186t266 65.5q175 0 262.5 -96.5t87.5 -257.5l-47 -57l-586 8q-4 -35 -4 -72q0 -71 19.5 -133t60 -113.5t110.5 -81.5t162 -30q111 0 232 37l28 -54q-83 -71 -175 -104t-228 -33q-199 0 -326 127t-127 338zM291 1178v161q158 -6 291 -6l290 6 v-161q-140 6 -290 6zM309 631l383 22q2 10 2 33q0 22 -2.5 41.5t-11.5 45.5t-24 44.5t-43 31.5t-66 13q-89 0 -153.5 -63t-84.5 -168z" />
<glyph unicode="&#x114;" d="M76 0v74l49 10q131 26 131 188v938q0 76 -22.5 102.5t-92.5 37.5l-63 10v74q195 -9 340 -9l661 9v-336h-67q-16 114 -104 183t-242 69q-88 0 -127 -13v-557h131q153 0 176 146l14 94h74q-8 -133 -8 -262q0 -51 2 -111.5t4 -95.5l2 -35h-76l-12 51q-12 53 -48 79t-102 26 h-157v-455q0 -133 166 -133q135 0 226.5 83.5t137.5 221.5l68 -8l-68 -381q-451 8 -668 8q-72 0 -153 -2t-126 -4zM324 1876h182q0 -195 170 -195q95 0 145.5 50.5t50.5 144.5h89q0 -163 -84 -251.5t-226 -88.5q-153 0 -240 86.5t-87 253.5z" />
<glyph unicode="&#x115;" horiz-adv-x="972" d="M51 432q0 150 72 270.5t193 186t266 65.5q175 0 262.5 -96.5t87.5 -257.5l-47 -57l-586 8q-4 -35 -4 -72q0 -71 19.5 -133t60 -113.5t110.5 -81.5t162 -30q111 0 232 37l28 -54q-83 -71 -175 -104t-228 -33q-199 0 -326 127t-127 338zM281 1436h182q0 -195 166 -195 q95 0 144.5 50.5t49.5 144.5h88q0 -163 -82.5 -251.5t-224.5 -88.5q-150 0 -236.5 87t-86.5 253zM309 631l383 22q2 10 2 33q0 22 -2.5 41.5t-11.5 45.5t-24 44.5t-43 31.5t-66 13q-89 0 -153.5 -63t-84.5 -168z" />
<glyph unicode="&#x116;" d="M76 0v74l49 10q131 26 131 188v938q0 76 -22.5 102.5t-92.5 37.5l-63 10v74q195 -9 340 -9l661 9v-336h-67q-16 114 -104 183t-242 69q-88 0 -127 -13v-557h131q153 0 176 146l14 94h74q-8 -133 -8 -262q0 -51 2 -111.5t4 -95.5l2 -35h-76l-12 51q-12 53 -48 79t-102 26 h-157v-455q0 -133 166 -133q135 0 226.5 83.5t137.5 221.5l68 -8l-68 -381q-451 8 -668 8q-72 0 -153 -2t-126 -4zM508 1733q0 63 46 108t110 45q63 0 108 -45t45 -108t-45 -109.5t-108 -46.5q-64 0 -110 46.5t-46 109.5z" />
<glyph unicode="&#x117;" horiz-adv-x="972" d="M51 432q0 150 72 270.5t193 186t266 65.5q175 0 262.5 -96.5t87.5 -257.5l-47 -57l-586 8q-4 -35 -4 -72q0 -71 19.5 -133t60 -113.5t110.5 -81.5t162 -30q111 0 232 37l28 -54q-83 -71 -175 -104t-228 -33q-199 0 -326 127t-127 338zM309 631l383 22q2 10 2 33 q0 22 -2.5 41.5t-11.5 45.5t-24 44.5t-43 31.5t-66 13q-89 0 -153.5 -63t-84.5 -168zM428 1341q0 60 43 101t107 41q62 0 104.5 -41t42.5 -101q0 -61 -42.5 -103t-104.5 -42q-64 0 -107 41.5t-43 103.5z" />
<glyph unicode="&#x118;" d="M76 0v74l49 10q131 26 131 188v938q0 76 -22.5 102.5t-92.5 37.5l-63 10v74q195 -9 340 -9l661 9v-336h-67q-16 114 -104 183t-242 69q-88 0 -127 -13v-557h131q153 0 176 146l14 94h74q-8 -133 -8 -262q0 -51 2 -111.5t4 -95.5l2 -35h-76l-12 51q-12 53 -48 79t-102 26 h-157v-455q0 -133 166 -133q135 0 226.5 83.5t137.5 221.5l68 -8l-68 -381q-119 -55 -177 -127.5t-58 -151.5q0 -53 27.5 -83.5t80.5 -30.5q32 0 58.5 12t39.5 29q24 -6 37 -23.5t13 -36.5q0 -40 -50 -73t-141 -33q-113 0 -177.5 49.5t-64.5 142.5q0 61 27.5 116t74 95 t92 68t95.5 49q-450 6 -545 6q-72 0 -153 -2t-126 -4z" />
<glyph unicode="&#x119;" horiz-adv-x="972" d="M51 432q0 150 72 270.5t193 186t266 65.5q175 0 262.5 -96.5t87.5 -257.5l-47 -57l-586 8q-4 -35 -4 -72q0 -71 19.5 -133t60 -113.5t110.5 -81.5t162 -30q111 0 232 37l28 -54l-30 -24q-108 -90 -164 -186.5t-56 -172.5q0 -52 28 -83t81 -31q32 0 58.5 12t39.5 29 q24 -6 36.5 -23t12.5 -37q0 -40 -49.5 -73t-140.5 -33q-113 0 -177.5 49.5t-64.5 142.5q0 150 203 314q-76 -21 -180 -21q-199 0 -326 127t-127 338zM309 631l383 22q2 10 2 33q0 22 -2.5 41.5t-11.5 45.5t-24 44.5t-43 31.5t-66 13q-89 0 -153.5 -63t-84.5 -168z" />
<glyph unicode="&#x11a;" d="M76 0v74l49 10q131 26 131 188v938q0 76 -22.5 102.5t-92.5 37.5l-63 10v74q195 -9 340 -9l661 9v-336h-67q-16 114 -104 183t-242 69q-88 0 -127 -13v-557h131q153 0 176 146l14 94h74q-8 -133 -8 -262q0 -51 2 -111.5t4 -95.5l2 -35h-76l-12 51q-12 53 -48 79t-102 26 h-157v-455q0 -133 166 -133q135 0 226.5 83.5t137.5 221.5l68 -8l-68 -381q-451 8 -668 8q-72 0 -153 -2t-126 -4zM291 1800l139 88l213 -262q16 60 52 116.5t92.5 98t117.5 41.5q51 0 73.5 -25.5t22.5 -58.5l-350 -280z" />
<glyph unicode="&#x11b;" horiz-adv-x="972" d="M51 432q0 150 72 270.5t193 186t266 65.5q175 0 262.5 -96.5t87.5 -257.5l-47 -57l-586 8q-4 -35 -4 -72q0 -71 19.5 -133t60 -113.5t110.5 -81.5t162 -30q111 0 232 37l28 -54q-83 -71 -175 -104t-228 -33q-199 0 -326 127t-127 338zM221 1432l152 84l207 -318 q18 64 52.5 132t92 124.5t117.5 56.5q48 0 72 -26.5t24 -57.5l-350 -352zM309 631l383 22q2 10 2 33q0 22 -2.5 41.5t-11.5 45.5t-24 44.5t-43 31.5t-66 13q-89 0 -153.5 -63t-84.5 -168z" />
<glyph unicode="&#x11c;" horiz-adv-x="1597" d="M59 680q0 123 34.5 238t104 213.5t165 172.5t226 116t279.5 42q108 0 256 -27.5t250 -27.5v-383h-67q-33 153 -148 244.5t-311 91.5q-227 0 -355 -167.5t-128 -449.5q0 -108 21 -206t65.5 -183.5t108.5 -148.5t156 -99t202 -36q105 0 155.5 43t50.5 116v174q0 64 -32 93 t-115 43l-37 6v73h596v-73l-27 -6q-123 -28 -123 -183v-311q-110 0 -280 -39t-303 -39q-160 0 -295.5 47.5t-235.5 136.5t-156.5 225t-56.5 304zM535 1606l360 282l350 -280q0 -33 -22.5 -58.5t-73.5 -25.5q-61 0 -117.5 41.5t-92.5 98t-52 116.5l-213 -262z" />
<glyph unicode="&#x11d;" horiz-adv-x="1083" d="M14 -264q0 67 44 107t102 40q66 0 106 -43q-35 -42 -35 -102q0 -81 72.5 -123.5t204.5 -42.5q136 0 224.5 50.5t88.5 123.5q0 72 -68 114t-239 42q-416 0 -416 182q0 46 18 81.5t50.5 58.5t66 36.5t76.5 24.5q-109 27 -184.5 113t-75.5 194q0 155 116.5 258.5 t323.5 103.5q145 0 230 -57q78 -16 143 -16q112 0 207 45q18 -30 18 -66q0 -40 -33.5 -68t-78.5 -28q-35 0 -82 15t-64 18q50 -73 50 -168q0 -152 -114.5 -246t-299.5 -113q-160 -16 -160 -90q0 -40 57.5 -59t192.5 -19q227 0 338 -73.5t111 -206.5q0 -68 -35.5 -129 t-103 -109.5t-177.5 -77t-248 -28.5q-67 0 -127 8.5t-115.5 28.5t-95.5 49t-64 73t-24 99zM201 1145l366 356l351 -352q0 -31 -24.5 -57.5t-72.5 -26.5q-60 0 -117.5 56.5t-92 124.5t-52.5 132l-207 -317zM283 623q0 -100 55.5 -185.5t142.5 -85.5q164 0 164 248 q0 63 -23 123.5t-69 102.5t-104 42q-84 0 -125 -64.5t-41 -180.5z" />
<glyph unicode="&#x11e;" horiz-adv-x="1597" d="M59 680q0 123 34.5 238t104 213.5t165 172.5t226 116t279.5 42q108 0 256 -27.5t250 -27.5v-383h-67q-33 153 -148 244.5t-311 91.5q-227 0 -355 -167.5t-128 -449.5q0 -108 21 -206t65.5 -183.5t108.5 -148.5t156 -99t202 -36q105 0 155.5 43t50.5 116v174q0 64 -32 93 t-115 43l-37 6v73h596v-73l-27 -6q-123 -28 -123 -183v-311q-110 0 -280 -39t-303 -39q-160 0 -295.5 47.5t-235.5 136.5t-156.5 225t-56.5 304zM541 1876h182q0 -195 170 -195q95 0 146 50.5t51 144.5h88q0 -163 -84 -251.5t-226 -88.5q-153 0 -240 86.5t-87 253.5z" />
<glyph unicode="&#x11f;" horiz-adv-x="1083" d="M14 -264q0 67 44 107t102 40q66 0 106 -43q-35 -42 -35 -102q0 -81 72.5 -123.5t204.5 -42.5q136 0 224.5 50.5t88.5 123.5q0 72 -68 114t-239 42q-416 0 -416 182q0 46 18 81.5t50.5 58.5t66 36.5t76.5 24.5q-109 27 -184.5 113t-75.5 194q0 155 116.5 258.5 t323.5 103.5q145 0 230 -57q78 -16 143 -16q112 0 207 45q18 -30 18 -66q0 -40 -33.5 -68t-78.5 -28q-35 0 -82 15t-64 18q50 -73 50 -168q0 -152 -114.5 -246t-299.5 -113q-160 -16 -160 -90q0 -40 57.5 -59t192.5 -19q227 0 338 -73.5t111 -206.5q0 -68 -35.5 -129 t-103 -109.5t-177.5 -77t-248 -28.5q-67 0 -127 8.5t-115.5 28.5t-95.5 49t-64 73t-24 99zM260 1436h182q0 -195 166 -195q95 0 145 50.5t50 144.5h88q0 -163 -82.5 -251.5t-224.5 -88.5q-150 0 -237 87t-87 253zM283 623q0 -100 55.5 -185.5t142.5 -85.5q164 0 164 248 q0 63 -23 123.5t-69 102.5t-104 42q-84 0 -125 -64.5t-41 -180.5z" />
<glyph unicode="&#x120;" horiz-adv-x="1597" d="M59 680q0 123 34.5 238t104 213.5t165 172.5t226 116t279.5 42q108 0 256 -27.5t250 -27.5v-383h-67q-33 153 -148 244.5t-311 91.5q-227 0 -355 -167.5t-128 -449.5q0 -108 21 -206t65.5 -183.5t108.5 -148.5t156 -99t202 -36q105 0 155.5 43t50.5 116v174q0 64 -32 93 t-115 43l-37 6v73h596v-73l-27 -6q-123 -28 -123 -183v-311q-110 0 -280 -39t-303 -39q-160 0 -295.5 47.5t-235.5 136.5t-156.5 225t-56.5 304zM739 1733q0 63 46 108t110 45q63 0 108.5 -45t45.5 -108t-45.5 -109.5t-108.5 -46.5q-64 0 -110 46.5t-46 109.5z" />
<glyph unicode="&#x121;" horiz-adv-x="1083" d="M14 -264q0 67 44 107t102 40q66 0 106 -43q-35 -42 -35 -102q0 -81 72.5 -123.5t204.5 -42.5q136 0 224.5 50.5t88.5 123.5q0 72 -68 114t-239 42q-416 0 -416 182q0 46 18 81.5t50.5 58.5t66 36.5t76.5 24.5q-109 27 -184.5 113t-75.5 194q0 155 116.5 258.5 t323.5 103.5q145 0 230 -57q78 -16 143 -16q112 0 207 45q18 -30 18 -66q0 -40 -33.5 -68t-78.5 -28q-35 0 -82 15t-64 18q50 -73 50 -168q0 -152 -114.5 -246t-299.5 -113q-160 -16 -160 -90q0 -40 57.5 -59t192.5 -19q227 0 338 -73.5t111 -206.5q0 -68 -35.5 -129 t-103 -109.5t-177.5 -77t-248 -28.5q-67 0 -127 8.5t-115.5 28.5t-95.5 49t-64 73t-24 99zM283 623q0 -100 55.5 -185.5t142.5 -85.5q164 0 164 248q0 63 -23 123.5t-69 102.5t-104 42q-84 0 -125 -64.5t-41 -180.5zM367 1341q0 60 42.5 101t106.5 41q62 0 105 -41t43 -101 q0 -61 -43 -103t-105 -42q-64 0 -106.5 41.5t-42.5 103.5z" />
<glyph unicode="&#x122;" horiz-adv-x="1597" d="M59 680q0 123 34.5 238t104 213.5t165 172.5t226 116t279.5 42q108 0 256 -27.5t250 -27.5v-383h-67q-33 153 -148 244.5t-311 91.5q-227 0 -355 -167.5t-128 -449.5q0 -108 21 -206t65.5 -183.5t108.5 -148.5t156 -99t202 -36q105 0 155.5 43t50.5 116v174q0 64 -32 93 t-115 43l-37 6v73h596v-73l-27 -6q-123 -28 -123 -183v-311q-110 0 -280 -39t-303 -39q-160 0 -295.5 47.5t-235.5 136.5t-156.5 225t-56.5 304zM631 -551q64 23 102.5 67.5t38.5 92.5q0 76 -94 123q0 63 39.5 104t105.5 41q70 0 112 -46t42 -114q0 -62 -28.5 -116.5 t-76.5 -92.5t-103.5 -65t-117.5 -43z" />
<glyph unicode="&#x123;" horiz-adv-x="1083" d="M14 -264q0 67 44 107t102 40q66 0 106 -43q-35 -42 -35 -102q0 -81 72.5 -123.5t204.5 -42.5q136 0 224.5 50.5t88.5 123.5q0 72 -68 114t-239 42q-416 0 -416 182q0 46 18 81.5t50.5 58.5t66 36.5t76.5 24.5q-109 27 -184.5 113t-75.5 194q0 155 116.5 258.5 t323.5 103.5q145 0 230 -57q78 -16 143 -16q112 0 207 45q18 -30 18 -66q0 -40 -33.5 -68t-78.5 -28q-35 0 -82 15t-64 18q50 -73 50 -168q0 -152 -114.5 -246t-299.5 -113q-160 -16 -160 -90q0 -40 57.5 -59t192.5 -19q227 0 338 -73.5t111 -206.5q0 -68 -35.5 -129 t-103 -109.5t-177.5 -77t-248 -28.5q-67 0 -127 8.5t-115.5 28.5t-95.5 49t-64 73t-24 99zM283 623q0 -100 55.5 -185.5t142.5 -85.5q164 0 164 248q0 63 -23 123.5t-69 102.5t-104 42q-84 0 -125 -64.5t-41 -180.5zM406 1233q0 62 28.5 116.5t76.5 92.5t103 65t117 43 l21 -49q-64 -23 -103 -67.5t-39 -92.5q0 -75 95 -122q0 -63 -40 -104.5t-106 -41.5q-70 0 -111.5 46t-41.5 114z" />
<glyph unicode="&#x124;" horiz-adv-x="1744" d="M76 0v74l49 10q131 26 131 188v938q0 76 -22.5 102.5t-92.5 37.5l-63 10v74q183 -9 328 -9q72 0 150.5 2.5t120.5 4.5l42 2v-74l-49 -10q-131 -26 -131 -189v-356h665v405q0 76 -22 102.5t-92 37.5l-64 10v74q183 -9 328 -9q72 0 150.5 2.5t120.5 4.5l42 2v-74l-49 -10 q-131 -26 -131 -189v-938q0 -75 22.5 -101.5t92.5 -37.5l63 -10v-74q-183 8 -328 8q-72 0 -150.5 -2t-120.5 -4l-42 -2v74l49 10q131 26 131 188v410h-665v-459q0 -76 22 -102t92 -37l64 -10v-74q-183 8 -328 8q-72 0 -150.5 -2t-120.5 -4zM535 1606l360 282l350 -280 q0 -33 -22.5 -58.5t-73.5 -25.5q-61 0 -117.5 41.5t-92.5 98t-52 116.5l-213 -262z" />
<glyph unicode="&#x125;" horiz-adv-x="1165" d="M74 0v68l43 6q50 8 79 41t29 86v1059q0 59 -32 84.5t-101 25.5l-18 64q88 8 187 33.5t153 46.5l55 22v-733q26 4 64.5 29t74 51.5t91.5 48.5t114 22q128 0 197 -74t69 -198v-498q0 -56 16 -78t54 -28l63 -10v-68q-129 6 -260 6q-62 0 -123 -1.5t-91 -2.5l-31 -2v68l26 6 q48 9 74.5 42t26.5 85v444q0 75 -38.5 114.5t-113.5 39.5q-43 0 -116.5 -37t-96.5 -39v-539q0 -56 16 -78t54 -28l63 -10v-68q-129 6 -260 6zM358 1677l361 283l350 -281q0 -33 -22.5 -58.5t-73.5 -25.5q-61 0 -117.5 41.5t-92.5 98t-52 116.5l-213 -262z" />
<glyph unicode="&#x126;" horiz-adv-x="1742" d="M76 0v74l49 10q131 26 131 188v697l-178 -2v141q76 -2 178 -2v104q0 76 -22.5 102.5t-92.5 37.5l-63 10v74q183 -9 328 -9q72 0 150.5 2.5t120.5 4.5l42 2v-74l-49 -10q-131 -26 -131 -189v-57q143 -2 331 -2q191 0 334 2v106q0 76 -22 102.5t-92 37.5l-64 10v74 q183 -9 328 -9q72 0 150.5 2.5t120.5 4.5l42 2v-74l-49 -10q-131 -26 -131 -189v-55l180 2v-141q-76 0 -180 2v-746q0 -75 22.5 -101.5t92.5 -37.5l63 -10v-74q-183 8 -328 8q-72 0 -150.5 -2t-120.5 -4l-42 -2v74l49 10q131 26 131 188v410h-665v-459q0 -76 22 -102t92 -37 l64 -10v-74q-183 8 -328 8q-72 0 -150.5 -2t-120.5 -4zM539 805h665v166q-81 0 -198.5 1t-135.5 1q-14 0 -131 -1t-200 -1v-166z" />
<glyph unicode="&#x127;" horiz-adv-x="1253" d="M70 1092v135q69 -4 155 -6v39q0 59 -32 84.5t-101 25.5l-18 64q88 8 187 33.5t153 46.5l55 22v-315l389 6v-135q-223 4 -389 6v-295q26 4 64.5 29t74 51.5t91.5 48.5t114 22q128 0 197 -74t69 -198v-498q0 -56 16 -78t54 -28l63 -10v-68q-129 6 -260 6q-62 0 -123 -1.5 t-91 -2.5l-31 -2v68l26 6q48 9 74.5 42t26.5 85v444q0 75 -38.5 114.5t-113.5 39.5q-43 0 -116.5 -37t-96.5 -39v-539q0 -56 16 -78t54 -28l63 -10v-68q-129 6 -260 6l-268 -6v68l43 6q50 8 79 41t29 86v895z" />
<glyph unicode="&#x128;" horiz-adv-x="794" d="M59 1620q15 95 65 156t138 61q54 0 110 -24.5t106.5 -49t90.5 -24.5q92 0 133 100l52 -43q-15 -94 -65 -154.5t-138 -60.5q-50 0 -105 24.5t-107 49t-95 24.5q-92 0 -133 -100zM76 0v74l49 10q131 26 131 188v938q0 76 -22.5 102.5t-92.5 37.5l-63 10v74q183 -9 328 -9 q72 0 150.5 2.5t120.5 4.5l42 2v-74l-49 -10q-131 -26 -131 -189v-938q0 -76 22 -102t92 -37l64 -10v-74q-183 8 -328 8q-72 0 -150.5 -2t-120.5 -4z" />
<glyph unicode="&#x129;" horiz-adv-x="673" d="M-8 1188q15 95 65 156t138 61q54 0 110 -24.5t106.5 -49t90.5 -24.5q92 0 133 100l51 -43q-15 -94 -65 -154.5t-138 -60.5q-50 0 -105 24.5t-107 49t-95 24.5q-92 0 -133 -100zM74 0v68l41 6q51 8 79.5 40.5t28.5 86.5v475q0 60 -31.5 86t-101.5 26l-16 62 q88 8 186.5 33.5t153.5 46.5l55 22v-768q0 -56 15.5 -78t54.5 -28l61 -10v-68q-127 6 -260 6z" />
<glyph unicode="&#x12a;" horiz-adv-x="794" d="M76 0v74l49 10q131 26 131 188v938q0 76 -22.5 102.5t-92.5 37.5l-63 10v74q183 -9 328 -9q72 0 150.5 2.5t120.5 4.5l42 2v-74l-49 -10q-131 -26 -131 -189v-938q0 -76 22 -102t92 -37l64 -10v-74q-183 8 -328 8q-72 0 -150.5 -2t-120.5 -4zM109 1626v162q166 -6 299 -6 l299 6v-162q-149 6 -299 6z" />
<glyph unicode="&#x12b;" horiz-adv-x="675" d="M55 1178v161q158 -6 291 -6l291 6v-161q-141 6 -291 6zM76 0v68l41 6q51 8 79.5 40.5t28.5 86.5v475q0 60 -31.5 86t-101.5 26l-16 62q88 8 186.5 33.5t153.5 46.5l55 22v-768q0 -56 15.5 -78t54.5 -28l61 -10v-68q-127 6 -260 6z" />
<glyph unicode="&#x12c;" horiz-adv-x="794" d="M76 0v74l49 10q131 26 131 188v938q0 76 -22.5 102.5t-92.5 37.5l-63 10v74q183 -9 328 -9q72 0 150.5 2.5t120.5 4.5l42 2v-74l-49 -10q-131 -26 -131 -189v-938q0 -76 22 -102t92 -37l64 -10v-74q-183 8 -328 8q-72 0 -150.5 -2t-120.5 -4zM94 1876h182 q0 -195 170 -195q95 0 146 50.5t51 144.5h88q0 -163 -83.5 -251.5t-225.5 -88.5q-153 0 -240.5 86.5t-87.5 253.5z" />
<glyph unicode="&#x12d;" horiz-adv-x="675" d="M35 1436h182q0 -195 166 -195q95 0 145 50.5t50 144.5h88q0 -163 -83 -251.5t-225 -88.5q-150 0 -236.5 87t-86.5 253zM76 0v68l41 6q51 8 79.5 40.5t28.5 86.5v475q0 60 -31.5 86t-101.5 26l-16 62q88 8 186.5 33.5t153.5 46.5l55 22v-768q0 -56 15.5 -78t54.5 -28 l61 -10v-68q-127 6 -260 6z" />
<glyph unicode="&#x12e;" horiz-adv-x="794" d="M76 0v74l49 10q131 26 131 188v938q0 76 -22.5 102.5t-92.5 37.5l-63 10v74q183 -9 328 -9q72 0 150.5 2.5t120.5 4.5l42 2v-74l-49 -10q-131 -26 -131 -189v-938q0 -76 22 -102t92 -37l64 -10v-74q-131 -51 -201 -128t-70 -151q0 -51 34.5 -82.5t88.5 -31.5 q32 0 59 12.5t40 28.5q24 -6 36.5 -23t12.5 -37q0 -40 -50 -73t-141 -33q-117 0 -186.5 52.5t-69.5 146.5q0 108 85.5 193.5t213.5 131.5q-55 2 -180 2q-72 0 -150.5 -2t-120.5 -4z" />
<glyph unicode="&#x12f;" horiz-adv-x="675" d="M76 0v68l41 6q51 8 79.5 40.5t28.5 86.5v475q0 60 -31.5 86t-101.5 26l-16 62q88 8 186.5 33.5t153.5 46.5l55 22v-768q0 -56 15.5 -78t54.5 -28l61 -10v-68q-131 -51 -200.5 -128t-69.5 -151q0 -51 34.5 -82.5t88.5 -31.5q32 0 58.5 12t39.5 29q24 -6 36.5 -23t12.5 -37 q0 -40 -49.5 -73t-140.5 -33q-117 0 -186.5 52.5t-69.5 146.5q0 107 83.5 192t209.5 131q-16 0 -52 1t-55 1zM180 1341q0 60 43 101t107 41q62 0 104.5 -41t42.5 -101q0 -61 -42.5 -103t-104.5 -42q-64 0 -107 41.5t-43 103.5z" />
<glyph unicode="&#x130;" horiz-adv-x="794" d="M76 0v74l49 10q131 26 131 188v938q0 76 -22.5 102.5t-92.5 37.5l-63 10v74q183 -9 328 -9q72 0 150.5 2.5t120.5 4.5l42 2v-74l-49 -10q-131 -26 -131 -189v-938q0 -76 22 -102t92 -37l64 -10v-74q-183 8 -328 8q-72 0 -150.5 -2t-120.5 -4zM279 1733q0 63 45.5 108 t109.5 45q63 0 108.5 -45t45.5 -108t-45.5 -109.5t-108.5 -46.5q-64 0 -109.5 46.5t-45.5 109.5z" />
<glyph unicode="&#x131;" horiz-adv-x="690" d="M100 0v68l41 6q52 8 80.5 41t28.5 86v475q0 60 -31.5 86t-101.5 26l-17 62q88 8 187 33.5t154 46.5l55 22v-768q0 -56 15.5 -78t53.5 -28l62 -10v-68q-127 6 -260 6z" />
<glyph unicode="&#x132;" horiz-adv-x="1574" d="M76 0v74l49 10q131 26 131 188v938q0 76 -22.5 102.5t-92.5 37.5l-63 10v74q183 -9 328 -9q72 0 150.5 2.5t120.5 4.5l42 2v-74l-49 -10q-131 -26 -131 -189v-938q0 -76 22 -102t92 -37l64 -10v-74q-183 8 -328 8q-72 0 -150.5 -2t-120.5 -4zM809 -395q15 26 82.5 88.5 t93.5 113.5q31 59 41 125.5t10 157.5v1120q0 76 -22 102.5t-92 37.5l-64 10v74q183 -9 328 -9q72 0 150.5 2.5t120.5 4.5l42 2v-74l-49 -10q-131 -26 -131 -189v-975q0 -165 -31 -260.5t-104 -173.5q-39 -43 -104 -79.5t-129.5 -69t-96.5 -62.5z" />
<glyph unicode="&#x133;" horiz-adv-x="1265" d="M76 0v68l41 6q51 8 79.5 40.5t28.5 86.5v475q0 60 -31.5 86t-101.5 26l-16 62q88 8 186.5 33.5t153.5 46.5l55 22v-768q0 -56 15.5 -78t54.5 -28l61 -10v-68q-127 6 -260 6zM180 1341q0 60 43 101t107 41q62 0 104.5 -41t42.5 -101q0 -61 -42.5 -103t-104.5 -42 q-64 0 -107 41.5t-43 103.5zM571 -406q25 23 92.5 70.5t102.5 93.5q72 95 72 281v637q0 59 -32.5 85.5t-100.5 26.5l-19 62q88 8 187 33.5t153 46.5l55 22v-811q0 -152 -31.5 -250t-105.5 -174q-33 -33 -80 -58.5t-86.5 -39.5t-87 -35t-78.5 -45zM793 1341q0 60 43.5 101 t107.5 41q62 0 105 -41t43 -101q0 -61 -43 -103t-105 -42q-64 0 -107.5 41.5t-43.5 103.5z" />
<glyph unicode="&#x134;" horiz-adv-x="784" d="M29 -395q15 26 82.5 88.5t93.5 113.5q31 59 41 125.5t10 157.5v1120q0 76 -22.5 102.5t-92.5 37.5l-63 10v74q183 -9 328 -9q72 0 150.5 2.5t120.5 4.5l42 2v-74l-49 -10q-131 -26 -131 -189v-975q0 -165 -31.5 -260.5t-104.5 -173.5q-39 -43 -104 -79.5t-129 -69 t-96 -62.5zM53 1606l361 282l350 -280q0 -33 -22.5 -58.5t-73.5 -25.5q-61 0 -117.5 41.5t-92.5 98t-52 116.5l-213 -262z" />
<glyph unicode="&#x135;" horiz-adv-x="634" d="M-59 -406q24 22 91.5 70t102.5 94q72 95 72 281v637q0 59 -32.5 85.5t-100.5 26.5l-19 62q88 8 187 33.5t154 46.5l55 22v-811q0 -152 -31.5 -250t-106.5 -174q-42 -42 -103.5 -70.5t-125.5 -53.5t-102 -54zM-25 1145l367 356l350 -352q0 -31 -24 -57.5t-72 -26.5 q-60 0 -117.5 56.5t-92 124.5t-52.5 132l-207 -317z" />
<glyph unicode="&#x136;" horiz-adv-x="1576" d="M76 0v74l49 10q131 26 131 188v938q0 76 -22.5 102.5t-92.5 37.5l-63 10v74q183 -9 328 -9q72 0 150.5 2.5t120.5 4.5l42 2v-74l-49 -10q-131 -26 -131 -189v-391h133l329 434q31 45 31 78q0 54 -71 68l-54 10v74q146 -9 320 -9q65 0 135.5 2.5t108.5 4.5l38 2v-74 l-53 -10q-75 -15 -130.5 -54t-115.5 -116l-303 -385l365 -519q67 -95 141 -150.5t143 -55.5q17 0 30.5 1.5t18.5 2.5l5 2v-64q-9 -5 -25.5 -13.5t-74 -22t-121.5 -13.5q-257 0 -406 240l-229 372q-64 105 -160 105q-27 0 -55 -8v-449q0 -76 22 -102t92 -37l64 -10v-74 q-183 8 -328 8q-72 0 -150.5 -2t-120.5 -4zM672 -551q64 23 102.5 67.5t38.5 92.5q0 76 -94 123q0 63 39.5 104t105.5 41q70 0 112 -46t42 -114q0 -62 -28.5 -116.5t-76.5 -92.5t-103.5 -65t-117.5 -43z" />
<glyph unicode="&#x137;" horiz-adv-x="1230" d="M74 0v68l43 6q50 8 79 41t29 86v1059q0 59 -32 84.5t-101 25.5l-18 64q88 8 187 33.5t153 46.5l55 22v-985h80l123 174q22 33 22 57q0 56 -69 66l-43 6v68q104 -7 282 -7q88 0 158.5 1.5t96.5 3.5l26 2v-66l-72 -8q-91 -9 -161.5 -38t-127.5 -103l-75 -99l215 -319 q89 -133 158.5 -177t170.5 -44v-50q-88 -32 -192 -32q-131 0 -213 53.5t-148 163.5l-139 227q-16 26 -36.5 38.5t-55.5 12.5v-297q0 -56 16 -78t54 -28l63 -10v-68q-129 6 -260 6zM508 -551q64 23 102.5 67.5t38.5 92.5q0 76 -94 123q0 63 39.5 104t105.5 41q70 0 112 -46 t42 -114q0 -62 -28.5 -116.5t-76.5 -92.5t-103.5 -65t-117.5 -43z" />
<glyph unicode="&#x138;" horiz-adv-x="1230" d="M74 0v68l43 6q50 8 79 41t29 86v485q0 59 -32 85t-101 26l-18 63q97 7 196 30t149 42l50 20v-411h80l123 184q20 30 20 59q0 25 -16.5 42.5t-50.5 21.5l-43 6v68q104 -7 282 -7q88 0 158.5 1.5t96.5 3.5l26 2v-66l-72 -8q-203 -21 -297 -154l-67 -96l213 -309 q92 -133 161 -177t170 -44v-50q-88 -32 -192 -32q-129 0 -212 55t-151 162l-137 217q-16 26 -36.5 38.5t-55.5 12.5v-287q0 -56 16 -78t54 -28l63 -10v-68q-129 6 -260 6z" />
<glyph unicode="&#x139;" d="M76 0v74l49 10q131 26 131 188v938q0 76 -22.5 102.5t-92.5 37.5l-63 10v74q183 -9 328 -9q72 0 152.5 2.5t124.5 4.5l44 2v-74l-53 -10q-135 -26 -135 -189v-938q0 -81 48.5 -110t133.5 -29q137 0 231.5 95t149.5 249l63 -8l-47 -420q-508 8 -729 8q-72 0 -150.5 -2 t-120.5 -4zM389 1583l150 328q15 6 39 6q40 0 66 -28.5t26 -71.5q0 -73 -77.5 -145.5t-178.5 -110.5z" />
<glyph unicode="&#x13a;" horiz-adv-x="643" d="M74 0v68l43 6q50 8 79 41t29 86v1059q0 59 -32 84.5t-101 25.5l-18 64q88 8 187 33.5t153 46.5l55 22v-1352q0 -56 16 -78t54 -28l63 -10v-68q-129 6 -260 6zM209 1583l149 328q15 6 39 6q40 0 66 -28.5t26 -71.5q0 -73 -77.5 -145.5t-178.5 -110.5z" />
<glyph unicode="&#x13b;" d="M76 0v74l49 10q131 26 131 188v938q0 76 -22.5 102.5t-92.5 37.5l-63 10v74q183 -9 328 -9q72 0 152.5 2.5t124.5 4.5l44 2v-74l-53 -10q-135 -26 -135 -189v-938q0 -81 48.5 -110t133.5 -29q137 0 231.5 95t149.5 249l63 -8l-47 -420q-508 8 -729 8q-72 0 -150.5 -2 t-120.5 -4zM428 -551q64 23 102.5 67.5t38.5 92.5q0 76 -94 123q0 63 40 104t106 41q70 0 111.5 -46t41.5 -114q0 -62 -28.5 -116.5t-76.5 -92.5t-103 -65t-117 -43z" />
<glyph unicode="&#x13c;" horiz-adv-x="643" d="M74 0v68l43 6q50 8 79 41t29 86v1059q0 59 -32 84.5t-101 25.5l-18 64q88 8 187 33.5t153 46.5l55 22v-1352q0 -56 16 -78t54 -28l63 -10v-68q-129 6 -260 6zM127 -551q64 23 102.5 67.5t38.5 92.5q0 76 -94 123q0 63 39.5 104t105.5 41q70 0 112 -46t42 -114 q0 -62 -28.5 -116.5t-76.5 -92.5t-103.5 -65t-117.5 -43z" />
<glyph unicode="&#x13d;" d="M76 0v74l49 10q131 26 131 188v938q0 76 -22.5 102.5t-92.5 37.5l-63 10v74q183 -9 328 -9q72 0 152.5 2.5t124.5 4.5l44 2v-74l-53 -10q-135 -26 -135 -189v-938q0 -81 48.5 -110t133.5 -29q137 0 231.5 95t149.5 249l63 -8l-47 -420q-508 8 -729 8q-72 0 -150.5 -2 t-120.5 -4zM844 1354q0 50 32 79t76 29q55 0 87 -41.5t32 -107.5q0 -75 -47 -175t-117 -180l-45 21q40 93 39 189t-57 186z" />
<glyph unicode="&#x13e;" horiz-adv-x="765" d="M74 0v68l43 6q50 8 79 41t29 86v1059q0 59 -32 84.5t-101 25.5l-18 64q88 8 187 33.5t153 46.5l55 22v-1352q0 -56 16 -78t54 -28l63 -10v-68q-129 6 -260 6zM561 1427q0 50 32.5 79.5t76.5 29.5q54 0 86 -42t32 -108q0 -75 -47 -174.5t-116 -179.5l-45 21 q26 70 35 127.5t-3 121.5t-51 125z" />
<glyph unicode="&#x13f;" d="M76 0v74l49 10q131 26 131 188v938q0 76 -22.5 102.5t-92.5 37.5l-63 10v74q183 -9 328 -9q72 0 152.5 2.5t124.5 4.5l44 2v-74l-53 -10q-135 -26 -135 -189v-938q0 -81 48.5 -110t133.5 -29q137 0 231.5 95t149.5 249l63 -8l-47 -420q-508 8 -729 8q-72 0 -150.5 -2 t-120.5 -4zM768 788q0 62 42 105t105 43q61 0 104.5 -43t43.5 -105q0 -61 -43 -104t-105 -43q-63 0 -105 42.5t-42 104.5z" />
<glyph unicode="&#x140;" horiz-adv-x="899" d="M74 0v68l43 6q50 8 79 41t29 86v1059q0 59 -32 84.5t-101 25.5l-18 64q88 8 187 33.5t153 46.5l55 22v-1352q0 -56 16 -78t54 -28l63 -10v-68q-129 6 -260 6zM547 748q0 62 42 104.5t105 42.5q62 0 105 -43t43 -104q0 -62 -43 -105t-105 -43q-63 0 -105 43t-42 105z" />
<glyph unicode="&#x141;" d="M57 637q103 60 199 113v460q0 76 -22.5 102.5t-92.5 37.5l-63 10v74q183 -9 328 -9q72 0 152.5 2.5t124.5 4.5l44 2v-74l-53 -10q-135 -26 -135 -189v-250l272 158l66 -125q-18 -9 -81.5 -43t-132.5 -71t-124 -68v-539q0 -81 48.5 -110t133.5 -29q137 0 231.5 95 t149.5 249l63 -8l-47 -420q-508 8 -729 8q-72 0 -150.5 -2t-120.5 -4l-42 -2v74l49 10q131 26 131 188v326l-133 -78z" />
<glyph unicode="&#x142;" horiz-adv-x="643" d="M51 680q74 37 174 90v490q0 59 -32 84.5t-101 25.5l-18 64q88 8 187 33.5t153 46.5l55 22v-627l199 125l61 -110q-129 -68 -260 -144v-596q0 -56 16 -78t54 -28l63 -10v-68q-129 6 -260 6l-268 -6v68l43 6q50 8 79 41t29 86v438q-27 -15 -54 -31.5t-41 -25.5l-13 -9z" />
<glyph unicode="&#x143;" horiz-adv-x="1644" d="M43 0v74l45 10q76 17 106.5 59t30.5 127v940q0 69 -25 99.5t-94 40.5l-61 10v74q201 -11 428 -11q9 -54 36 -100t85 -109l723 -776v746q0 87 -39 119t-131 47l-70 10v74q179 -9 320 -9q63 0 119 2.5t81 4.5l25 2v-74l-43 -10q-67 -16 -98 -60t-31 -143v-1155l-104 -12 l-981 1058v-764q0 -53 11 -87.5t37 -54.5t55.5 -30t80.5 -18l59 -10v-74q-165 8 -284 8q-65 0 -135.5 -2t-108.5 -4zM786 1583l150 328q15 6 39 6q40 0 66 -28.5t26 -71.5q0 -73 -77.5 -145.5t-178.5 -110.5z" />
<glyph unicode="&#x144;" horiz-adv-x="1232" d="M53 0v68l43 6q50 8 79.5 41t29.5 86v475q0 59 -32.5 85.5t-100.5 26.5l-19 62q88 8 187 33.5t154 46.5l55 22v-149q27 8 67 34.5t74.5 51.5t89.5 45t113 20q128 0 197 -74t69 -198v-498q0 -56 16 -78t53 -28l64 -10v-68q-129 6 -260 6q-62 0 -123.5 -1.5t-92.5 -2.5 l-30 -2v68l27 6q48 9 74 42t26 85v444q0 154 -151 154q-43 0 -116.5 -37t-96.5 -39v-539q0 -56 16 -78t53 -28l64 -10v-68q-129 6 -260 6zM524 1077l209 426q15 6 39 6q43 0 71.5 -28.5t28.5 -69.5q0 -45 -22.5 -93t-57.5 -88t-79 -76.5t-85 -61.5t-77 -41z" />
<glyph unicode="&#x145;" horiz-adv-x="1644" d="M43 0v74l45 10q76 17 106.5 59t30.5 127v940q0 69 -25 99.5t-94 40.5l-61 10v74q201 -11 428 -11q9 -54 36 -100t85 -109l723 -776v746q0 87 -39 119t-131 47l-70 10v74q179 -9 320 -9q63 0 119 2.5t81 4.5l25 2v-74l-43 -10q-67 -16 -98 -60t-31 -143v-1155l-104 -12 l-981 1058v-764q0 -53 11 -87.5t37 -54.5t55.5 -30t80.5 -18l59 -10v-74q-165 8 -284 8q-65 0 -135.5 -2t-108.5 -4zM670 -551q64 23 102.5 67.5t38.5 92.5q0 76 -94 123q0 63 39.5 104t105.5 41q70 0 112 -46t42 -114q0 -62 -28.5 -116.5t-76.5 -92.5t-103.5 -65 t-117.5 -43z" />
<glyph unicode="&#x146;" horiz-adv-x="1232" d="M53 0v68l43 6q50 8 79.5 41t29.5 86v475q0 59 -32.5 85.5t-100.5 26.5l-19 62q88 8 187 33.5t154 46.5l55 22v-149q27 8 67 34.5t74.5 51.5t89.5 45t113 20q128 0 197 -74t69 -198v-498q0 -56 16 -78t53 -28l64 -10v-68q-129 6 -260 6q-62 0 -123.5 -1.5t-92.5 -2.5 l-30 -2v68l27 6q48 9 74 42t26 85v444q0 154 -151 154q-43 0 -116.5 -37t-96.5 -39v-539q0 -56 16 -78t53 -28l64 -10v-68q-129 6 -260 6zM440 -551q64 23 103 67.5t39 92.5q0 75 -95 123q0 63 40 104t106 41q70 0 111.5 -46t41.5 -114q0 -62 -28.5 -116.5t-76.5 -92.5 t-103 -65t-117 -43z" />
<glyph unicode="&#x147;" horiz-adv-x="1644" d="M43 0v74l45 10q76 17 106.5 59t30.5 127v940q0 69 -25 99.5t-94 40.5l-61 10v74q201 -11 428 -11q9 -54 36 -100t85 -109l723 -776v746q0 87 -39 119t-131 47l-70 10v74q179 -9 320 -9q63 0 119 2.5t81 4.5l25 2v-74l-43 -10q-67 -16 -98 -60t-31 -143v-1155l-104 -12 l-981 1058v-764q0 -53 11 -87.5t37 -54.5t55.5 -30t80.5 -18l59 -10v-74q-165 8 -284 8q-65 0 -135.5 -2t-108.5 -4zM508 1800l139 88l213 -262q16 60 52 116.5t92.5 98t117.5 41.5q51 0 74 -25.5t23 -58.5l-351 -280z" />
<glyph unicode="&#x148;" horiz-adv-x="1232" d="M53 0v68l43 6q50 8 79.5 41t29.5 86v475q0 59 -32.5 85.5t-100.5 26.5l-19 62q88 8 187 33.5t154 46.5l55 22v-149q27 8 67 34.5t74.5 51.5t89.5 45t113 20q128 0 197 -74t69 -198v-498q0 -56 16 -78t53 -28l64 -10v-68q-129 6 -260 6q-62 0 -123.5 -1.5t-92.5 -2.5 l-30 -2v68l27 6q48 9 74 42t26 85v444q0 154 -151 154q-43 0 -116.5 -37t-96.5 -39v-539q0 -56 16 -78t53 -28l64 -10v-68q-129 6 -260 6zM276 1432l152 84l207 -318q18 64 52.5 132t92 124.5t117.5 56.5q48 0 72 -26.5t24 -57.5l-350 -352z" />
<glyph unicode="&#x149;" horiz-adv-x="1232" d="M10 1122q64 23 103 67.5t39 92.5q0 76 -95 123q0 63 40 104t106 41q70 0 111.5 -45.5t41.5 -113.5q0 -62 -28.5 -116.5t-76.5 -93t-103 -65.5t-117 -43zM53 0v68l43 6q50 8 79.5 41t29.5 86v475q0 59 -32.5 85.5t-100.5 26.5l-19 62q88 8 187 33.5t154 46.5l55 22v-149 q27 8 67 34.5t74.5 51.5t89.5 45t113 20q128 0 197 -74t69 -198v-498q0 -56 16 -78t53 -28l64 -10v-68q-129 6 -260 6q-62 0 -123.5 -1.5t-92.5 -2.5l-30 -2v68l27 6q48 9 74 42t26 85v444q0 154 -151 154q-43 0 -116.5 -37t-96.5 -39v-539q0 -56 16 -78t53 -28l64 -10v-68 q-129 6 -260 6z" />
<glyph unicode="&#x14a;" horiz-adv-x="1644" d="M43 0v74l45 10q76 17 106.5 59t30.5 127v940q0 69 -25 99.5t-94 40.5l-61 10v74q201 -11 428 -11q9 -54 36 -100t85 -109l723 -776v746q0 87 -39 119t-131 47l-70 10v74q179 -9 320 -9q63 0 119 2.5t81 4.5l25 2v-74l-43 -10q-67 -16 -98 -60t-31 -143v-961 q0 -165 -31 -260.5t-104 -173.5q-39 -43 -104 -79.5t-129.5 -69t-96.5 -62.5l-45 64q15 25 52 57t75.5 69t58.5 76q52 99 52 283v72l-813 876v-764q0 -53 11 -87.5t37 -54.5t55.5 -30t80.5 -18l59 -10v-74q-165 8 -284 8q-65 0 -135.5 -2t-108.5 -4z" />
<glyph unicode="&#x14b;" horiz-adv-x="1222" d="M53 0v68l43 6q50 8 79.5 41t29.5 86v475q0 59 -32.5 85.5t-100.5 26.5l-19 62q88 8 187 33.5t154 46.5l55 22v-149q27 8 67 34.5t74.5 51.5t89.5 45t113 20q128 0 197 -74t69 -198v-545q0 -148 -32 -246t-105 -174q-33 -33 -80 -58.5t-86.5 -39.5t-87 -35t-78.5 -45 l-41 55q24 22 91.5 70t102.5 94q72 95 72 281v606q0 75 -39 114.5t-114 39.5q-43 0 -116.5 -37t-96.5 -39v-539q0 -56 16 -78t53 -28l64 -10v-68q-129 6 -260 6z" />
<glyph unicode="&#x14c;" horiz-adv-x="1646" d="M59 680q0 121 33.5 235t101.5 213.5t163 173.5t227.5 117t285.5 43q148 0 278 -49t228 -139t154.5 -225.5t56.5 -298.5q0 -101 -24 -197.5t-69 -183.5t-115.5 -160.5t-158.5 -127.5t-202 -84t-242 -30q-118 0 -225.5 31t-197 92t-155.5 146t-102.5 199t-36.5 245z M365 743q0 -149 39 -276t106 -213.5t159 -135t197 -48.5q112 0 194 47.5t129.5 134t70 194t22.5 240.5q0 199 -67 353.5t-181 237.5t-254 83q-90 0 -161 -32t-118 -87t-78 -134t-44.5 -169t-13.5 -195zM551 1626v162q166 -6 299 -6l299 6v-162q-149 6 -299 6z" />
<glyph unicode="&#x14d;" horiz-adv-x="1138" d="M51 432q0 143 64 260.5t191 189.5t296 72q215 0 350 -130t135 -335q0 -106 -37.5 -201t-106 -166.5t-173.5 -113t-231 -41.5q-215 0 -351.5 130.5t-136.5 334.5zM303 1178v161q158 -6 291 -6l291 6v-161q-141 6 -291 6zM322 479q0 -101 33 -195t96 -156t141 -62 q75 0 128 55.5t76 138t23 182.5q0 101 -33 195t-96.5 156.5t-142.5 62.5q-56 0 -100.5 -32t-71 -86.5t-40 -120t-13.5 -138.5z" />
<glyph unicode="&#x14e;" horiz-adv-x="1646" d="M59 680q0 121 33.5 235t101.5 213.5t163 173.5t227.5 117t285.5 43q148 0 278 -49t228 -139t154.5 -225.5t56.5 -298.5q0 -101 -24 -197.5t-69 -183.5t-115.5 -160.5t-158.5 -127.5t-202 -84t-242 -30q-118 0 -225.5 31t-197 92t-155.5 146t-102.5 199t-36.5 245z M365 743q0 -149 39 -276t106 -213.5t159 -135t197 -48.5q112 0 194 47.5t129.5 134t70 194t22.5 240.5q0 199 -67 353.5t-181 237.5t-254 83q-90 0 -161 -32t-118 -87t-78 -134t-44.5 -169t-13.5 -195zM516 1876h182q0 -195 170 -195q95 0 146 50.5t51 144.5h88 q0 -163 -83.5 -251.5t-225.5 -88.5q-153 0 -240.5 86.5t-87.5 253.5z" />
<glyph unicode="&#x14f;" horiz-adv-x="1138" d="M51 432q0 143 64 260.5t191 189.5t296 72q215 0 350 -130t135 -335q0 -106 -37.5 -201t-106 -166.5t-173.5 -113t-231 -41.5q-215 0 -351.5 130.5t-136.5 334.5zM301 1436h182q0 -195 166 -195q95 0 145 50.5t50 144.5h88q0 -163 -82.5 -251.5t-224.5 -88.5 q-150 0 -237 87t-87 253zM322 479q0 -101 33 -195t96 -156t141 -62q75 0 128 55.5t76 138t23 182.5q0 101 -33 195t-96.5 156.5t-142.5 62.5q-56 0 -100.5 -32t-71 -86.5t-40 -120t-13.5 -138.5z" />
<glyph unicode="&#x150;" horiz-adv-x="1646" d="M59 680q0 121 33.5 235t101.5 213.5t163 173.5t227.5 117t285.5 43q148 0 278 -49t228 -139t154.5 -225.5t56.5 -298.5q0 -101 -24 -197.5t-69 -183.5t-115.5 -160.5t-158.5 -127.5t-202 -84t-242 -30q-118 0 -225.5 31t-197 92t-155.5 146t-102.5 199t-36.5 245z M365 743q0 -149 39 -276t106 -213.5t159 -135t197 -48.5q112 0 194 47.5t129.5 134t70 194t22.5 240.5q0 199 -67 353.5t-181 237.5t-254 83q-90 0 -161 -32t-118 -87t-78 -134t-44.5 -169t-13.5 -195zM670 1583l149 328q15 6 39 6q40 0 66 -28.5t26 -71.5 q0 -73 -77.5 -145.5t-178.5 -110.5zM944 1583l150 328q15 6 39 6q40 0 66 -28.5t26 -71.5q0 -73 -77.5 -145.5t-178.5 -110.5z" />
<glyph unicode="&#x151;" horiz-adv-x="1138" d="M51 432q0 143 64 260.5t191 189.5t296 72q215 0 350 -130t135 -335q0 -106 -37.5 -201t-106 -166.5t-173.5 -113t-231 -41.5q-215 0 -351.5 130.5t-136.5 334.5zM291 1077l209 426q15 6 39 6q43 0 71.5 -28.5t28.5 -69.5q0 -56 -34 -115.5t-85.5 -106.5t-104 -82.5 t-98.5 -55.5zM322 479q0 -101 33 -195t96 -156t141 -62q75 0 128 55.5t76 138t23 182.5q0 101 -33 195t-96.5 156.5t-142.5 62.5q-56 0 -100.5 -32t-71 -86.5t-40 -120t-13.5 -138.5zM621 1077l208 426q15 6 39 6q44 0 72.5 -28.5t28.5 -69.5q0 -56 -34 -115.5t-85.5 -106.5 t-104 -82.5t-98.5 -55.5z" />
<glyph unicode="&#x152;" horiz-adv-x="1961" d="M59 680q0 121 33.5 235t102 213.5t163.5 174t226.5 117t283.5 42.5q128 0 240 -37q135 0 319.5 2.5t302.5 4.5l117 2v-336h-67q-16 114 -104 183t-242 69q-88 0 -127 -13v-557h131q153 0 176 146l14 94h74q-8 -133 -8 -262q0 -51 2 -111.5t4 -95.5l2 -35h-76l-12 51 q-12 53 -48 79t-102 26h-157v-455q0 -133 166 -133q135 0 226.5 83.5t137.5 221.5l68 -8l-68 -381q-449 8 -666 8q-83 0 -122 -2q-128 -39 -275 -39q-145 0 -275 49.5t-227.5 139t-155 225.5t-57.5 299zM365 743q0 -300 142.5 -486.5t356.5 -186.5q83 0 121.5 43t38.5 131 v932q0 94 -70.5 139t-175.5 45q-90 0 -160.5 -32t-117.5 -87t-78 -134t-44 -169t-13 -195z" />
<glyph unicode="&#x153;" horiz-adv-x="1765" d="M51 432q0 143 64 260.5t191 189.5t296 72q119 0 215.5 -44t161.5 -122q74 79 176.5 122.5t218.5 43.5q175 0 262.5 -96.5t87.5 -257.5l-47 -57l-585 8q-5 -35 -5 -72q0 -71 20 -133t60 -113.5t110.5 -81.5t162.5 -30q110 0 231 37l29 -54q-83 -71 -175.5 -104t-228.5 -33 q-111 0 -202 41t-152 117q-151 -158 -403 -158q-215 0 -351.5 130.5t-136.5 334.5zM322 479q0 -101 33 -195t96 -156t141 -62q75 0 128 55.5t76 138t23 182.5q0 101 -33 195t-96.5 156.5t-142.5 62.5q-56 0 -100.5 -32t-71 -86.5t-40 -120t-13.5 -138.5zM1102 631l383 22 q2 10 2 33q0 21 -2.5 41t-11.5 46t-24 44.5t-43.5 31.5t-66.5 13q-89 0 -153 -63t-84 -168z" />
<glyph unicode="&#x154;" horiz-adv-x="1431" d="M76 0v74l49 10q131 26 131 188v938q0 76 -22.5 102.5t-92.5 37.5l-63 10v74q183 -9 328 -9q58 0 161 4.5t142 4.5q100 0 184.5 -22t142.5 -58.5t98.5 -84.5t59 -99.5t18.5 -104.5q0 -78 -27.5 -143.5t-65.5 -106.5t-89 -73t-87.5 -46.5t-70.5 -23.5q79 -39 156 -164 l154 -250q59 -94 140.5 -151.5t180.5 -57.5v-59q-65 -23 -194 -23q-289 0 -424 271l-142 278q-31 63 -63 91t-82 28q-16 0 -31 -3.5t-21 -7.5l-7 -3v-398q0 -76 22 -102t92 -37l64 -10v-74q-183 8 -328 8q-72 0 -150.5 -2t-120.5 -4zM539 705q49 32 127 32q27 0 52 -3.5 t36 -7.5l12 -3q59 41 105.5 129.5t46.5 198.5q0 94 -44 164t-109.5 102.5t-141.5 32.5q-45 0 -84 -13v-632zM653 1583l150 328q15 6 39 6q40 0 66 -28.5t26 -71.5q0 -73 -77.5 -145.5t-178.5 -110.5z" />
<glyph unicode="&#x155;" horiz-adv-x="901" d="M47 0v68l37 6q54 9 87.5 42t33.5 85v475q0 60 -31.5 86t-101.5 26l-17 62q88 8 187 33.5t154 46.5l55 22v-151q18 5 65.5 44.5t106.5 74t114 34.5q70 0 109 -42t39 -101q0 -70 -39.5 -104.5t-100.5 -34.5q-54 0 -88 24q7 18 7 39q0 25 -14.5 41.5t-41.5 16.5 q-33 0 -87 -31.5t-70 -36.5v-541q0 -56 22 -78.5t70 -27.5l102 -10v-68q-139 6 -323 6q-69 0 -138 -1.5t-103 -2.5zM471 1077l209 426q15 6 39 6q43 0 71.5 -28.5t28.5 -69.5q0 -45 -22.5 -93t-57.5 -88t-79 -76.5t-85 -61.5t-77 -41z" />
<glyph unicode="&#x156;" horiz-adv-x="1431" d="M76 0v74l49 10q131 26 131 188v938q0 76 -22.5 102.5t-92.5 37.5l-63 10v74q183 -9 328 -9q58 0 161 4.5t142 4.5q100 0 184.5 -22t142.5 -58.5t98.5 -84.5t59 -99.5t18.5 -104.5q0 -78 -27.5 -143.5t-65.5 -106.5t-89 -73t-87.5 -46.5t-70.5 -23.5q79 -39 156 -164 l154 -250q59 -94 140.5 -151.5t180.5 -57.5v-59q-65 -23 -194 -23q-289 0 -424 271l-142 278q-31 63 -63 91t-82 28q-16 0 -31 -3.5t-21 -7.5l-7 -3v-398q0 -76 22 -102t92 -37l64 -10v-74q-183 8 -328 8q-72 0 -150.5 -2t-120.5 -4zM539 705q49 32 127 32q27 0 52 -3.5 t36 -7.5l12 -3q59 41 105.5 129.5t46.5 198.5q0 94 -44 164t-109.5 102.5t-141.5 32.5q-45 0 -84 -13v-632zM598 -551q64 23 102.5 67.5t38.5 92.5q0 76 -94 123q0 63 40 104t106 41q70 0 111.5 -46t41.5 -114q0 -62 -28.5 -116.5t-76.5 -92.5t-103.5 -65t-117.5 -43z" />
<glyph unicode="&#x157;" horiz-adv-x="901" d="M47 0v68l37 6q54 9 87.5 42t33.5 85v475q0 60 -31.5 86t-101.5 26l-17 62q88 8 187 33.5t154 46.5l55 22v-151q18 5 65.5 44.5t106.5 74t114 34.5q70 0 109 -42t39 -101q0 -70 -39.5 -104.5t-100.5 -34.5q-54 0 -88 24q7 18 7 39q0 25 -14.5 41.5t-41.5 16.5 q-33 0 -87 -31.5t-70 -36.5v-541q0 -56 22 -78.5t70 -27.5l102 -10v-68q-139 6 -323 6q-69 0 -138 -1.5t-103 -2.5zM164 -551q64 23 102.5 67.5t38.5 92.5q0 76 -94 123q0 63 39.5 104t105.5 41q70 0 112 -46t42 -114q0 -62 -28.5 -116.5t-76.5 -92.5t-103.5 -65t-117.5 -43 z" />
<glyph unicode="&#x158;" horiz-adv-x="1431" d="M76 0v74l49 10q131 26 131 188v938q0 76 -22.5 102.5t-92.5 37.5l-63 10v74q183 -9 328 -9q58 0 161 4.5t142 4.5q100 0 184.5 -22t142.5 -58.5t98.5 -84.5t59 -99.5t18.5 -104.5q0 -78 -27.5 -143.5t-65.5 -106.5t-89 -73t-87.5 -46.5t-70.5 -23.5q79 -39 156 -164 l154 -250q59 -94 140.5 -151.5t180.5 -57.5v-59q-65 -23 -194 -23q-289 0 -424 271l-142 278q-31 63 -63 91t-82 28q-16 0 -31 -3.5t-21 -7.5l-7 -3v-398q0 -76 22 -102t92 -37l64 -10v-74q-183 8 -328 8q-72 0 -150.5 -2t-120.5 -4zM340 1800l139 88l213 -262 q16 60 52 116.5t92.5 98t117.5 41.5q51 0 74 -25.5t23 -58.5l-351 -280zM539 705q49 32 127 32q27 0 52 -3.5t36 -7.5l12 -3q59 41 105.5 129.5t46.5 198.5q0 94 -44 164t-109.5 102.5t-141.5 32.5q-45 0 -84 -13v-632z" />
<glyph unicode="&#x159;" horiz-adv-x="901" d="M47 0v68l37 6q54 9 87.5 42t33.5 85v475q0 60 -31.5 86t-101.5 26l-17 62q88 8 187 33.5t154 46.5l55 22v-151q18 5 65.5 44.5t106.5 74t114 34.5q70 0 109 -42t39 -101q0 -70 -39.5 -104.5t-100.5 -34.5q-54 0 -88 24q7 18 7 39q0 25 -14.5 41.5t-41.5 16.5 q-33 0 -87 -31.5t-70 -36.5v-541q0 -56 22 -78.5t70 -27.5l102 -10v-68q-139 6 -323 6q-69 0 -138 -1.5t-103 -2.5zM193 1432l151 84l207 -318q18 64 52.5 132t92 124.5t117.5 56.5q48 0 72 -26.5t24 -57.5l-350 -352z" />
<glyph unicode="&#x15a;" horiz-adv-x="1064" d="M74 33v377h67q36 -338 348 -338q119 0 187.5 60t68.5 157q0 68 -35.5 126t-92 101.5t-125 85.5t-137.5 88.5t-125.5 100t-92 131t-35.5 170.5q0 167 127.5 268.5t335.5 101.5q66 0 193.5 -21.5t195.5 -21.5l-20 -354h-68q-14 142 -103.5 217.5t-221.5 75.5 q-93 0 -153 -55t-60 -138q0 -60 36.5 -113.5t94.5 -95.5t128.5 -84.5t141.5 -90.5t129 -102t94.5 -130t36.5 -164q0 -90 -28.5 -164t-85.5 -132t-152.5 -90t-220.5 -32q-91 0 -229.5 33t-198.5 33zM539 1583l149 328q15 6 39 6q40 0 66 -28.5t26 -71.5q0 -73 -77.5 -145.5 t-178.5 -110.5z" />
<glyph unicode="&#x15b;" horiz-adv-x="831" d="M82 295h72q9 -115 72 -173.5t163 -58.5q79 0 126.5 36.5t47.5 90.5q0 42 -19.5 76t-51.5 56.5t-72.5 44.5t-83.5 40.5t-83.5 44.5t-72.5 55.5t-51.5 75.5t-19.5 103q0 119 95 193.5t255 74.5q80 0 154.5 -18t123.5 -18l-14 -267h-70q-5 92 -56.5 149.5t-145.5 57.5 q-66 0 -102 -33.5t-36 -87.5q0 -38 25.5 -69t66 -53.5t90 -45t98.5 -50t89.5 -61.5t66 -87t25.5 -119q0 -72 -31.5 -128t-86.5 -89.5t-124 -50.5t-149 -17q-63 0 -158 21.5t-133 21.5zM406 1077l208 426q15 6 39 6q43 0 72 -28.5t29 -69.5q0 -56 -34 -115.5t-85.5 -106.5 t-104 -82.5t-98.5 -55.5z" />
<glyph unicode="&#x15c;" horiz-adv-x="1064" d="M74 33v377h67q36 -338 348 -338q119 0 187.5 60t68.5 157q0 68 -35.5 126t-92 101.5t-125 85.5t-137.5 88.5t-125.5 100t-92 131t-35.5 170.5q0 167 127.5 268.5t335.5 101.5q66 0 193.5 -21.5t195.5 -21.5l-20 -354h-68q-14 142 -103.5 217.5t-221.5 75.5 q-93 0 -153 -55t-60 -138q0 -60 36.5 -113.5t94.5 -95.5t128.5 -84.5t141.5 -90.5t129 -102t94.5 -130t36.5 -164q0 -90 -28.5 -164t-85.5 -132t-152.5 -90t-220.5 -32q-91 0 -229.5 33t-198.5 33zM238 1606l360 282l350 -280q0 -33 -22.5 -58.5t-73.5 -25.5 q-61 0 -117.5 41.5t-92.5 98t-52 116.5l-213 -262z" />
<glyph unicode="&#x15d;" horiz-adv-x="831" d="M82 295h72q9 -115 72 -173.5t163 -58.5q79 0 126.5 36.5t47.5 90.5q0 42 -19.5 76t-51.5 56.5t-72.5 44.5t-83.5 40.5t-83.5 44.5t-72.5 55.5t-51.5 75.5t-19.5 103q0 119 95 193.5t255 74.5q80 0 154.5 -18t123.5 -18l-14 -267h-70q-5 92 -56.5 149.5t-145.5 57.5 q-66 0 -102 -33.5t-36 -87.5q0 -38 25.5 -69t66 -53.5t90 -45t98.5 -50t89.5 -61.5t66 -87t25.5 -119q0 -72 -31.5 -128t-86.5 -89.5t-124 -50.5t-149 -17q-63 0 -158 21.5t-133 21.5zM117 1145l366 356l351 -352q0 -31 -24.5 -57.5t-72.5 -26.5q-60 0 -117.5 56.5 t-92 124.5t-52.5 132l-207 -317z" />
<glyph unicode="&#x15e;" horiz-adv-x="1064" d="M74 33v377h67q36 -338 348 -338q119 0 187.5 60t68.5 157q0 68 -35.5 126t-92 101.5t-125 85.5t-137.5 88.5t-125.5 100t-92 131t-35.5 170.5q0 167 127.5 268.5t335.5 101.5q66 0 193.5 -21.5t195.5 -21.5l-20 -354h-68q-14 142 -103.5 217.5t-221.5 75.5 q-93 0 -153 -55t-60 -138q0 -60 36.5 -113.5t94.5 -95.5t128.5 -84.5t141.5 -90.5t129 -102t94.5 -130t36.5 -164q0 -181 -113.5 -296t-343.5 -122q-18 -18 -18 -49q0 -23 17.5 -42.5t43 -36t51 -35t43 -49t17.5 -70.5q0 -72 -74 -120t-184 -48q-75 0 -126.5 30.5 t-51.5 81.5q0 37 24.5 60.5t61.5 23.5q31 0 49 -12q-16 -22 -16 -49q0 -24 20.5 -43t61.5 -19q40 0 65 16t25 38t-15.5 40t-37.5 32.5t-44 31.5t-37.5 45t-15.5 64q0 65 64 112q-71 5 -195.5 34.5t-185.5 29.5z" />
<glyph unicode="&#x15f;" horiz-adv-x="831" d="M82 295h72q9 -115 72 -173.5t163 -58.5q79 0 126.5 36.5t47.5 90.5q0 42 -19.5 76t-51.5 56.5t-72.5 44.5t-83.5 40.5t-83.5 44.5t-72.5 55.5t-51.5 75.5t-19.5 103q0 119 95 193.5t255 74.5q80 0 154.5 -18t123.5 -18l-14 -267h-70q-5 92 -56.5 149.5t-145.5 57.5 q-66 0 -102 -33.5t-36 -87.5q0 -38 25.5 -69t66 -53.5t90 -45t98.5 -50t89.5 -61.5t66 -87t25.5 -119q0 -131 -98.5 -203t-249.5 -80q-18 -22 -18 -47q0 -23 17.5 -43t43 -37t51 -36t43 -50t17.5 -71q0 -72 -74 -120t-184 -48q-75 0 -127 30.5t-52 81.5q0 37 24.5 60.5 t61.5 23.5q32 0 50 -12q-17 -24 -17 -49q0 -24 20.5 -43t61.5 -19q40 0 65 16t25 38q0 26 -23.5 49.5t-51 40t-51 50t-23.5 77.5q0 69 61 108q-49 3 -133 22t-121 19z" />
<glyph unicode="&#x160;" horiz-adv-x="1064" d="M74 33v377h67q36 -338 348 -338q119 0 187.5 60t68.5 157q0 68 -35.5 126t-92 101.5t-125 85.5t-137.5 88.5t-125.5 100t-92 131t-35.5 170.5q0 167 127.5 268.5t335.5 101.5q66 0 193.5 -21.5t195.5 -21.5l-20 -354h-68q-14 142 -103.5 217.5t-221.5 75.5 q-93 0 -153 -55t-60 -138q0 -60 36.5 -113.5t94.5 -95.5t128.5 -84.5t141.5 -90.5t129 -102t94.5 -130t36.5 -164q0 -90 -28.5 -164t-85.5 -132t-152.5 -90t-220.5 -32q-91 0 -229.5 33t-198.5 33zM252 1800l139 88l213 -262q16 60 52 116.5t92.5 98t117.5 41.5 q51 0 74 -25.5t23 -58.5l-351 -280z" />
<glyph unicode="&#x161;" horiz-adv-x="831" d="M82 295h72q9 -115 72 -173.5t163 -58.5q79 0 126.5 36.5t47.5 90.5q0 42 -19.5 76t-51.5 56.5t-72.5 44.5t-83.5 40.5t-83.5 44.5t-72.5 55.5t-51.5 75.5t-19.5 103q0 119 95 193.5t255 74.5q80 0 154.5 -18t123.5 -18l-14 -267h-70q-5 92 -56.5 149.5t-145.5 57.5 q-66 0 -102 -33.5t-36 -87.5q0 -38 25.5 -69t66 -53.5t90 -45t98.5 -50t89.5 -61.5t66 -87t25.5 -119q0 -72 -31.5 -128t-86.5 -89.5t-124 -50.5t-149 -17q-63 0 -158 21.5t-133 21.5zM106 1432l152 84l207 -318q18 64 52.5 132t92 124.5t117.5 56.5q48 0 72 -26.5t24 -57.5 l-350 -352z" />
<glyph unicode="&#x162;" horiz-adv-x="1368" d="M53 1147l25 319h47q17 -32 84 -32h981q60 0 78 32h47l-23 -329l-59 10q0 180 -246 180h-162v-1104q0 -75 22.5 -101.5t92.5 -37.5l64 -10v-74q-144 6 -277 8q-17 -9 -35 -33t-18 -53q0 -23 17.5 -44t43 -38.5t51 -38t43 -52t17.5 -71.5q0 -72 -74 -119.5t-184 -47.5 q-75 0 -126.5 30.5t-51.5 81.5q0 37 24.5 60.5t61.5 23.5q31 0 49 -12q-17 -24 -17 -49q0 -24 20.5 -43t61.5 -19q40 0 65 16t25 38t-15.5 41t-37 35t-43.5 34.5t-37.5 47.5t-15.5 65q0 38 22.5 72t42.5 49t41 26l-295 -8v74l50 10q131 26 131 188v1055h-148 q-107 0 -176 -43.5t-106 -146.5z" />
<glyph unicode="&#x163;" horiz-adv-x="776" d="M31 870q90 34 178 111t145 158l64 -19v-198h291v-125h-291v-557q0 -129 135 -129q50 0 96.5 7t68.5 14l21 7l17 -59q-57 -45 -122 -74.5t-161 -36.5q-31 -31 -31 -65q0 -23 17.5 -44t43 -38.5t51 -38t43 -52t17.5 -71.5q0 -72 -74 -120t-184 -48q-75 0 -126.5 31 t-51.5 82q0 37 24.5 60.5t61.5 23.5q30 0 49 -13q-16 -22 -16 -49q0 -24 20.5 -42.5t61.5 -18.5q40 0 65 15.5t25 37.5t-15.5 41t-37.5 35t-44 34.5t-37.5 47.5t-15.5 65q0 72 72 127q-101 9 -160 74t-59 178v588h-133z" />
<glyph unicode="&#x164;" horiz-adv-x="1368" d="M53 1147l25 319h47q17 -32 84 -32h981q60 0 78 32h47l-23 -329l-59 10q0 180 -246 180h-162v-1104q0 -75 22.5 -101.5t92.5 -37.5l64 -10v-74q-183 8 -328 8q-72 0 -150.5 -2t-121.5 -4l-42 -2v74l50 10q131 26 131 188v1055h-148q-107 0 -176 -43.5t-106 -146.5z M371 1806l112 72l215 -246q14 40 34.5 78.5t50.5 77t71 62.5t86 24q40 0 63 -18t25 -39l-330 -279z" />
<glyph unicode="&#x165;" horiz-adv-x="776" d="M31 870q90 34 178 111t145 158l64 -19v-198h291v-125h-291v-557q0 -129 135 -129q50 0 96.5 7t68.5 14l21 7l17 -59q-42 -33 -77.5 -53.5t-104.5 -40t-150 -19.5q-114 0 -183 66.5t-69 187.5v588h-133zM578 1073q77 30 120 87.5t43 121.5q0 49 -27 90.5t-79 65.5 q0 63 37.5 105t99.5 42q79 0 121.5 -51t42.5 -127q0 -139 -95 -248t-243 -135z" />
<glyph unicode="&#x166;" horiz-adv-x="1368" d="M53 1147l25 319h47q17 -32 84 -32h981q60 0 78 32h47l-23 -329l-59 10q0 180 -246 180h-162v-426l226 6v-141q-111 2 -226 4v-547q0 -75 22.5 -101.5t92.5 -37.5l64 -10v-74q-183 8 -328 8q-72 0 -150.5 -2t-121.5 -4l-42 -2v74l50 10q131 26 131 188v498l-209 -4v141 q103 -4 209 -6v426h-148q-107 0 -176 -43.5t-106 -146.5z" />
<glyph unicode="&#x167;" horiz-adv-x="776" d="M31 504v133q63 -4 141 -6v178h-133l-8 61q90 34 178 111t145 158l64 -19v-198h291v-125h-291v-166l266 6v-133q-147 4 -266 6v-270q0 -129 135 -129q50 0 96.5 7t68.5 14l21 7l17 -59q-42 -33 -77.5 -53.5t-104.5 -40t-150 -19.5q-114 0 -183 66.5t-69 187.5v287z" />
<glyph unicode="&#x168;" horiz-adv-x="1597" d="M78 1360v74q183 -9 328 -9q72 0 150.5 2.5t120.5 4.5l42 2v-74l-49 -10q-131 -26 -131 -189v-688q0 -186 85.5 -275t266.5 -89q178 0 266 89.5t88 274.5v737q0 73 -28 101t-101 39l-65 10v74q96 -9 260 -9q64 0 126.5 2.5t92.5 4.5l31 2v-74l-50 -10q-129 -25 -129 -189 v-682q0 -114 -31.5 -206t-95.5 -161t-168.5 -107t-242.5 -38q-285 0 -436.5 128t-151.5 384v731q0 76 -22.5 102.5t-92.5 37.5zM545 1620q15 95 65 156t138 61q54 0 110 -24.5t106.5 -49t90.5 -24.5q92 0 133 100l51 -43q-15 -94 -65 -154.5t-138 -60.5q-50 0 -105 24.5 t-107 49t-95 24.5q-92 0 -133 -100z" />
<glyph unicode="&#x169;" horiz-adv-x="1198" d="M43 840v67l358 33l19 -18v-646q0 -153 162 -153q37 0 75 16.5t71 36t52 23.5v512q0 64 -28 96.5t-105 32.5v67l361 33l16 -18v-680q0 -58 32 -84.5t101 -26.5l17 -61q-88 -9 -183.5 -34.5t-147.5 -47.5l-52 -21l-11 150q-26 -6 -64.5 -31t-73.5 -51t-90 -47t-112 -21 q-128 0 -197 74t-69 199v485q0 59 -29.5 87t-101.5 28zM264 1188q15 95 65 156t138 61q54 0 110 -24.5t106.5 -49t90.5 -24.5q92 0 133 100l51 -43q-15 -94 -64.5 -154.5t-137.5 -60.5q-50 0 -105 24.5t-107 49t-95 24.5q-93 0 -134 -100z" />
<glyph unicode="&#x16a;" horiz-adv-x="1597" d="M78 1360v74q183 -9 328 -9q72 0 150.5 2.5t120.5 4.5l42 2v-74l-49 -10q-131 -26 -131 -189v-688q0 -186 85.5 -275t266.5 -89q178 0 266 89.5t88 274.5v737q0 73 -28 101t-101 39l-65 10v74q96 -9 260 -9q64 0 126.5 2.5t92.5 4.5l31 2v-74l-50 -10q-129 -25 -129 -189 v-682q0 -114 -31.5 -206t-95.5 -161t-168.5 -107t-242.5 -38q-285 0 -436.5 128t-151.5 384v731q0 76 -22.5 102.5t-92.5 37.5zM592 1626v162q166 -6 299 -6l299 6v-162q-149 6 -299 6z" />
<glyph unicode="&#x16b;" horiz-adv-x="1196" d="M43 840v67l358 33l19 -18v-646q0 -153 162 -153q37 0 75 16.5t71 36t52 23.5v512q0 64 -28 96.5t-105 32.5v67l361 33l16 -18v-680q0 -58 32 -84.5t101 -26.5l17 -61q-88 -9 -183.5 -34.5t-147.5 -47.5l-52 -21l-11 150q-26 -6 -64.5 -31t-73.5 -51t-90 -47t-112 -21 q-128 0 -197 74t-69 199v485q0 59 -29.5 87t-101.5 28zM326 1178v161q157 -6 290 -6l291 6v-161q-141 6 -291 6z" />
<glyph unicode="&#x16c;" horiz-adv-x="1597" d="M78 1360v74q183 -9 328 -9q72 0 150.5 2.5t120.5 4.5l42 2v-74l-49 -10q-131 -26 -131 -189v-688q0 -186 85.5 -275t266.5 -89q178 0 266 89.5t88 274.5v737q0 73 -28 101t-101 39l-65 10v74q96 -9 260 -9q64 0 126.5 2.5t92.5 4.5l31 2v-74l-50 -10q-129 -25 -129 -189 v-682q0 -114 -31.5 -206t-95.5 -161t-168.5 -107t-242.5 -38q-285 0 -436.5 128t-151.5 384v731q0 76 -22.5 102.5t-92.5 37.5zM571 1876h183q0 -195 170 -195q95 0 145.5 50.5t50.5 144.5h88q0 -163 -83.5 -251.5t-225.5 -88.5q-153 0 -240.5 86.5t-87.5 253.5z" />
<glyph unicode="&#x16d;" horiz-adv-x="1198" d="M43 840v67l358 33l19 -18v-646q0 -153 162 -153q37 0 75 16.5t71 36t52 23.5v512q0 64 -28 96.5t-105 32.5v67l361 33l16 -18v-680q0 -58 32 -84.5t101 -26.5l17 -61q-88 -9 -183.5 -34.5t-147.5 -47.5l-52 -21l-11 150q-26 -6 -64.5 -31t-73.5 -51t-90 -47t-112 -21 q-128 0 -197 74t-69 199v485q0 59 -29.5 87t-101.5 28zM301 1436h182q0 -195 166 -195q95 0 145 50.5t50 144.5h88q0 -163 -82.5 -251.5t-224.5 -88.5q-150 0 -237 87t-87 253z" />
<glyph unicode="&#x16e;" horiz-adv-x="1597" d="M78 1360v74q183 -9 328 -9q72 0 150.5 2.5t120.5 4.5l42 2v-74l-49 -10q-131 -26 -131 -189v-688q0 -186 85.5 -275t266.5 -89q178 0 266 89.5t88 274.5v737q0 73 -28 101t-101 39l-65 10v74q96 -9 260 -9q64 0 126.5 2.5t92.5 4.5l31 2v-74l-50 -10q-129 -25 -129 -189 v-682q0 -114 -31.5 -206t-95.5 -161t-168.5 -107t-242.5 -38q-285 0 -436.5 128t-151.5 384v731q0 76 -22.5 102.5t-92.5 37.5zM700 1741q0 86 64.5 151.5t175.5 65.5q92 0 152.5 -55t60.5 -150q0 -89 -64.5 -154t-175.5 -65q-93 0 -153 55t-60 152zM817 1751q0 -63 34 -100 t85 -37q100 0 100 127q0 63 -33.5 100t-84.5 37q-101 0 -101 -127z" />
<glyph unicode="&#x16f;" horiz-adv-x="1198" d="M43 840v67l358 33l19 -18v-646q0 -153 162 -153q37 0 75 16.5t71 36t52 23.5v512q0 64 -28 96.5t-105 32.5v67l361 33l16 -18v-680q0 -58 32 -84.5t101 -26.5l17 -61q-88 -9 -183.5 -34.5t-147.5 -47.5l-52 -21l-11 150q-26 -6 -64.5 -31t-73.5 -51t-90 -47t-112 -21 q-128 0 -197 74t-69 199v485q0 59 -29.5 87t-101.5 28zM401 1307q0 86 64.5 151.5t175.5 65.5q92 0 152.5 -55t60.5 -150q0 -89 -64.5 -154t-175.5 -65q-93 0 -153 55t-60 152zM518 1317q0 -63 34 -100t85 -37q100 0 100 127q0 63 -34 100t-85 37q-100 0 -100 -127z" />
<glyph unicode="&#x170;" horiz-adv-x="1597" d="M78 1360v74q183 -9 328 -9q72 0 150.5 2.5t120.5 4.5l42 2v-74l-49 -10q-131 -26 -131 -189v-688q0 -186 85.5 -275t266.5 -89q178 0 266 89.5t88 274.5v737q0 73 -28 101t-101 39l-65 10v74q96 -9 260 -9q64 0 126.5 2.5t92.5 4.5l31 2v-74l-50 -10q-129 -25 -129 -189 v-682q0 -114 -31.5 -206t-95.5 -161t-168.5 -107t-242.5 -38q-285 0 -436.5 128t-151.5 384v731q0 76 -22.5 102.5t-92.5 37.5zM709 1583l149 328q15 6 39 6q40 0 66 -28.5t26 -71.5q0 -73 -77.5 -145.5t-178.5 -110.5zM983 1583l150 328q15 6 38 6q40 0 66.5 -28.5 t26.5 -71.5q0 -73 -77.5 -145.5t-178.5 -110.5z" />
<glyph unicode="&#x171;" horiz-adv-x="1198" d="M43 840v67l358 33l19 -18v-646q0 -153 162 -153q37 0 75 16.5t71 36t52 23.5v512q0 64 -28 96.5t-105 32.5v67l361 33l16 -18v-680q0 -58 32 -84.5t101 -26.5l17 -61q-88 -9 -183.5 -34.5t-147.5 -47.5l-52 -21l-11 150q-26 -6 -64.5 -31t-73.5 -51t-90 -47t-112 -21 q-128 0 -197 74t-69 199v485q0 59 -29.5 87t-101.5 28zM387 1077l209 426q15 6 39 6q43 0 71.5 -28.5t28.5 -69.5q0 -45 -22.5 -93t-57.5 -88t-79 -76.5t-85 -61.5t-77 -41zM717 1077l209 426q15 6 39 6q43 0 71.5 -28.5t28.5 -69.5q0 -56 -34 -115.5t-85.5 -106.5 t-104 -82.5t-98.5 -55.5z" />
<glyph unicode="&#x172;" horiz-adv-x="1597" d="M78 1360v74q183 -9 328 -9q72 0 150.5 2.5t120.5 4.5l42 2v-74l-49 -10q-131 -26 -131 -189v-688q0 -186 85.5 -275t266.5 -89q178 0 266 89.5t88 274.5v737q0 73 -28 101t-101 39l-65 10v74q96 -9 260 -9q64 0 126.5 2.5t92.5 4.5l31 2v-74l-50 -10q-129 -25 -129 -189 v-682q0 -215 -106 -344q-164 -207 -164 -389q0 -139 123 -139q32 0 58.5 12t39.5 29q24 -6 36.5 -23t12.5 -37q0 -40 -49.5 -73t-140.5 -33q-117 0 -186.5 52.5t-69.5 146.5q0 160 151 323q-113 -37 -243 -37q-285 0 -436.5 128t-151.5 384v731q0 76 -22.5 102.5t-92.5 37.5 z" />
<glyph unicode="&#x173;" horiz-adv-x="1198" d="M43 840v67l358 33l19 -18v-646q0 -153 162 -153q37 0 75 16.5t71 36t52 23.5v512q0 64 -28 96.5t-105 32.5v67l361 33l16 -18v-680q0 -58 32 -84.5t101 -26.5l17 -61q-173 -51 -280.5 -148t-107.5 -201q0 -51 34 -82.5t89 -31.5q32 0 59 12.5t40 28.5q24 -6 36.5 -23 t12.5 -37q0 -40 -50 -73t-141 -33q-117 0 -186.5 52.5t-69.5 146.5q0 159 181 282l-11 154q-26 -6 -64.5 -31t-73.5 -51t-90 -47t-112 -21q-128 0 -197 74t-69 199v485q0 59 -29.5 87t-101.5 28z" />
<glyph unicode="&#x174;" horiz-adv-x="2232" d="M25 1360v74q135 -9 311 -9q68 0 147.5 2.5t124.5 4.5l45 2v-74l-32 -10q-82 -25 -82 -103q0 -31 18 -90l256 -805l252 832q8 28 8 59q0 51 -33 75t-94 32l-65 10v74q256 -9 428 -9q2 -108 41 -233l268 -840l264 801q21 68 21 96q0 42 -28.5 67.5t-92.5 35.5l-53 8v74 q133 -9 270 -9q45 0 97.5 2.5t81.5 4.5l30 2v-74l-27 -8q-111 -35 -160 -176l-413 -1194l-129 -15l-351 1041l-317 -1026l-141 -15l-434 1233q-22 62 -57.5 100t-104.5 50zM772 1606l361 282l350 -280q0 -33 -23 -58.5t-74 -25.5q-61 0 -117.5 41.5t-92.5 98t-52 116.5 l-213 -262z" />
<glyph unicode="&#x175;" horiz-adv-x="1619" d="M12 854v68q127 -9 258 -9q59 0 119.5 2.5t91.5 4.5l31 2v-68l-41 -10q-35 -9 -52.5 -21.5t-17.5 -36.5q0 -2 11 -41l155 -471l181 433q24 63 24 86q0 38 -59 51l-43 10v68q110 -7 258 -7l202 -632l183 442q16 42 16 68q0 38 -59 51l-43 10v68q102 -7 192 -7l185 7v-68 l-45 -10q-53 -12 -88 -48t-64 -104l-299 -725h-86l-221 598l-256 -598h-90l-295 762q-23 58 -46 82.5t-59 32.5zM487 1145l367 356l350 -352q0 -31 -24 -57.5t-72 -26.5q-60 0 -117.5 56.5t-92 124.5t-52.5 132l-207 -317z" />
<glyph unicode="&#x176;" horiz-adv-x="1482" d="M25 1360v74q135 -11 299 -11q83 0 161 2.5t115 5.5l37 3v-74l-33 -10q-55 -18 -55 -70q0 -30 22 -72l260 -477l263 475q22 42 22 70q0 56 -76 74l-41 10v74q140 -9 267 -9q47 0 95 2.5t73 4.5l24 2v-74l-41 -10q-71 -18 -122 -60t-103 -133l-303 -530v-404 q0 -74 26.5 -101t98.5 -38l63 -10v-74q-193 8 -338 8q-72 0 -152.5 -2t-125.5 -4l-45 -2v74l49 10q141 28 141 188v340l-317 568q-79 142 -217 170zM465 1606l360 282l351 -280q0 -33 -23 -58.5t-74 -25.5q-61 0 -117.5 41.5t-92.5 98t-52 116.5l-213 -262z" />
<glyph unicode="&#x177;" horiz-adv-x="1077" d="M-76 -311q0 46 31.5 79t91.5 33q24 0 47 -6q-4 -16 -4 -24q0 -33 25 -52.5t67 -19.5q144 0 224 184l49 115l-285 731q-23 58 -45.5 82.5t-58.5 32.5l-43 10v68q127 -9 258 -9q59 0 119.5 2.5t91.5 4.5l30 2v-68l-41 -10q-35 -8 -52 -21t-17 -37q0 -6 10 -41l160 -473 l176 435q24 63 24 86q0 38 -59 51l-43 10v68q102 -7 190 -7l185 7v-68l-43 -10q-53 -11 -85.5 -47t-62.5 -105l-354 -835q-21 -50 -46 -93t-60.5 -84.5t-76.5 -70.5t-94.5 -46.5t-113.5 -17.5q-94 0 -144.5 40.5t-50.5 103.5zM231 1145l367 356l350 -352q0 -31 -24 -57.5 t-72 -26.5q-60 0 -117.5 56.5t-92 124.5t-52.5 132l-207 -317z" />
<glyph unicode="&#x178;" horiz-adv-x="1482" d="M25 1360v74q135 -11 299 -11q83 0 161 2.5t115 5.5l37 3v-74l-33 -10q-55 -18 -55 -70q0 -30 22 -72l260 -477l263 475q22 42 22 70q0 56 -76 74l-41 10v74q140 -9 267 -9q47 0 95 2.5t73 4.5l24 2v-74l-41 -10q-71 -18 -122 -60t-103 -133l-303 -530v-404 q0 -74 26.5 -101t98.5 -38l63 -10v-74q-193 8 -338 8q-72 0 -152.5 -2t-125.5 -4l-45 -2v74l49 10q141 28 141 188v340l-317 568q-79 142 -217 170zM481 1731q0 57 36.5 94t92.5 37q57 0 94 -37t37 -94q0 -56 -37 -92.5t-94 -36.5q-56 0 -92.5 37t-36.5 92zM903 1731 q0 57 36.5 94t92.5 37q57 0 94 -37t37 -94q0 -56 -37 -92.5t-94 -36.5q-56 0 -92.5 37t-36.5 92z" />
<glyph unicode="&#x179;" horiz-adv-x="1353" d="M68 37l860 1300l-363 -26q-165 -11 -250.5 -79.5t-140.5 -205.5l-59 10l57 430h47q1 -4 4.5 -9t24.5 -14t55 -9h940l27 -50l-860 -1292l331 27q113 9 196 36t143 76.5t101.5 109t82.5 148.5l59 -14l-102 -475h-1133zM637 1583l149 328q15 6 39 6q40 0 66.5 -28.5 t26.5 -71.5q0 -73 -77.5 -145.5t-178.5 -110.5z" />
<glyph unicode="&#x17a;" horiz-adv-x="952" d="M41 35l569 799l-231 -9q-94 -3 -155.5 -44.5t-94.5 -141.5l-57 4l51 303h55q1 -3 5 -8.5t24.5 -14t50.5 -8.5l625 7l14 -37q-49 -62 -196 -260t-269 -365l-123 -168l234 10q71 3 125 18.5t87.5 42.5t53.5 57t33 69l14 41l55 -11l-53 -319h-801zM455 1077l209 426 q15 6 38 6q44 0 72.5 -28.5t28.5 -69.5q0 -56 -34 -115.5t-85.5 -106.5t-104 -82.5t-98.5 -55.5z" />
<glyph unicode="&#x17b;" horiz-adv-x="1355" d="M68 37l860 1300l-363 -26q-165 -11 -250.5 -79.5t-140.5 -205.5l-59 10l57 430h47q1 -4 4.5 -9t24.5 -14t55 -9h940l27 -50l-860 -1292l331 27q113 9 196 36t143 76.5t101.5 109t82.5 148.5l59 -14l-102 -475h-1133zM586 1733q0 63 45.5 108t109.5 45q63 0 108.5 -45 t45.5 -108t-45.5 -109.5t-108.5 -46.5q-64 0 -109.5 46.5t-45.5 109.5z" />
<glyph unicode="&#x17c;" horiz-adv-x="952" d="M41 35l569 799l-231 -9q-94 -3 -155.5 -44.5t-94.5 -141.5l-57 4l51 303h55q1 -3 5 -8.5t24.5 -14t50.5 -8.5l625 7l14 -37q-49 -62 -196 -260t-269 -365l-123 -168l234 10q71 3 125 18.5t87.5 42.5t53.5 57t33 69l14 41l55 -11l-53 -319h-801zM367 1341q0 60 42.5 101 t106.5 41q62 0 105 -41t43 -101q0 -61 -43 -103t-105 -42q-64 0 -106.5 41.5t-42.5 103.5z" />
<glyph unicode="&#x17d;" horiz-adv-x="1353" d="M68 37l860 1300l-363 -26q-165 -11 -250.5 -79.5t-140.5 -205.5l-59 10l57 430h47q1 -4 4.5 -9t24.5 -14t55 -9h940l27 -50l-860 -1292l331 27q113 9 196 36t143 76.5t101.5 109t82.5 148.5l59 -14l-102 -475h-1133zM381 1800l139 88l213 -262q16 60 52 116.5t92.5 98 t117.5 41.5q51 0 74 -25.5t23 -58.5l-351 -280z" />
<glyph unicode="&#x17e;" horiz-adv-x="952" d="M41 35l569 799l-231 -9q-94 -3 -155.5 -44.5t-94.5 -141.5l-57 4l51 303h55q1 -3 5 -8.5t24.5 -14t50.5 -8.5l625 7l14 -37q-49 -62 -196 -260t-269 -365l-123 -168l234 10q71 3 125 18.5t87.5 42.5t53.5 57t33 69l14 41l55 -11l-53 -319h-801zM176 1432l152 84l207 -318 q18 64 52.5 132t92 124.5t117.5 56.5q48 0 72 -26.5t24 -57.5l-350 -352z" />
<glyph unicode="&#x192;" horiz-adv-x="1087" d="M-289 -375q0 42 27.5 75.5t79.5 43.5q28 -77 61.5 -105t75.5 -28q114 0 158 266l114 686h-207l11 45q48 4 101.5 16t82.5 22l29 9q40 257 197.5 428.5t353.5 171.5q118 0 183.5 -47.5t65.5 -111.5q0 -51 -31.5 -82t-78.5 -31l-41 4q-14 65 -55 111.5t-107 46.5 q-82 0 -129.5 -57t-73.5 -189l-45 -229h303l-22 -111h-307l-86 -407q-35 -168 -94 -300t-126 -209t-134.5 -116t-129.5 -39q-82 0 -129 38t-47 99z" />
<glyph unicode="&#x1e2;" horiz-adv-x="1880" d="M-16 0v74l63 10q59 9 118.5 58t106.5 130l559 959q17 30 17 49q0 28 -31.5 43.5t-99.5 26.5l-64 10v74q281 -9 426 -9l686 9v-336h-67q-16 114 -104 183t-242 69q-88 0 -127 -13v-557h131q153 0 176 146l14 94h74q-8 -133 -8 -262q0 -51 2 -111.5t4 -95.5l2 -35h-76 l-12 51q-12 53 -48 79t-102 26h-157v-455q0 -133 166 -133q127 0 223 85.5t141 219.5l68 -8l-68 -381q-475 8 -692 8q-72 0 -147.5 -2t-114.5 -4l-39 -2v74l49 10q131 26 131 188v256h-399l-142 -256q-34 -63 -34 -104q0 -70 88 -84l59 -10v-74q-144 8 -281 8 q-50 0 -112.5 -2t-99.5 -4zM608 641h334v594zM836 1626v162q166 -6 299 -6l299 6v-162q-149 6 -299 6z" />
<glyph unicode="&#x1e3;" horiz-adv-x="1511" d="M66 178q0 151 138.5 229t395.5 78q4 100 4 166q0 106 -36 150.5t-122 44.5q-62 0 -90 -34.5t-28 -76.5q0 -35 16 -61q-37 -37 -108 -37q-59 0 -91 29t-32 75q0 64 59.5 113.5t150.5 74.5t193 25q86 0 163 -35t105 -92q137 127 336 127q175 0 262.5 -96.5t87.5 -257.5 l-47 -57l-585 8q-4 -35 -4 -72q0 -71 19.5 -133t60 -113.5t110.5 -81.5t162 -30q110 0 231 37l29 -54q-83 -70 -175 -103.5t-218 -33.5q-195 0 -320 119q-28 -3 -71 -22t-84.5 -40.5t-109 -39t-138.5 -17.5q-114 0 -189 56t-75 155zM307 213q0 -55 40 -88t108 -33 q47 0 127.5 26t97.5 29q-74 110 -80 261q-76 -1 -140 -20.5t-108.5 -65t-44.5 -109.5zM504 1178v161q158 -6 291 -6l290 6v-161q-140 6 -290 6zM848 631l383 22q2 10 2 33q0 21 -2.5 41t-11.5 46t-24 44.5t-43.5 31.5t-66.5 13q-89 0 -153 -63t-84 -168z" />
<glyph unicode="&#x1fa;" horiz-adv-x="1542" d="M29 0v74l37 10q129 36 186 192l416 1117q-57 22 -90 71.5t-33 120.5q0 86 64 151.5t175 65.5q92 0 152.5 -55t60.5 -150q0 -60 -30 -110.5t-86 -79.5l417 -1151q29 -80 72 -118.5t103 -53.5l40 -10v-74q-110 8 -292 8q-93 0 -178 -2t-123 -4l-39 -2v74l41 10 q100 25 100 113q0 25 -14 69l-88 260h-453l-88 -254q-19 -59 -19 -90q0 -41 28 -64.5t93 -33.5l62 -10v-74q-138 8 -275 8q-51 0 -111 -2t-94 -4zM508 641h373l-185 539zM653 1868l150 327q17 7 39 7q40 0 66 -29t26 -72q0 -73 -77.5 -145.5t-178.5 -110.5zM662 1595 q0 -63 33.5 -100t84.5 -37q101 0 101 127q0 63 -34 100t-85 37q-100 0 -100 -127z" />
<glyph unicode="&#x1fb;" horiz-adv-x="1044" d="M66 178q0 151 137.5 229t394.5 78q6 100 6 166q0 106 -36 150.5t-122 44.5q-62 0 -90 -34.5t-28 -76.5q0 -35 16 -61q-37 -37 -108 -37q-59 0 -91 29t-32 75q0 64 59.5 113.5t150.5 74.5t193 25q159 0 247.5 -79t88.5 -234q0 -59 -9 -197t-9 -196q0 -68 30 -108t84 -40 q19 0 37.5 4t27.5 8l9 3l27 -45q-3 -4 -9.5 -11t-28.5 -25t-46 -31.5t-62.5 -24.5t-79.5 -11q-72 0 -121.5 31t-74.5 76q-28 -8 -75.5 -36.5t-105 -49.5t-129.5 -21q-112 0 -181.5 55.5t-69.5 155.5zM307 213q0 -56 34 -87.5t99 -31.5q33 0 92 20t72 23q-16 49 -16 125 q0 33 2 69t4 55l2 20q-120 0 -204.5 -48.5t-84.5 -144.5zM317 1270q0 86 64.5 151.5t175.5 65.5q92 0 152.5 -55t60.5 -150q0 -89 -64.5 -154t-175.5 -65q-93 0 -153 55t-60 152zM428 1583l150 328q15 6 38 6q40 0 66.5 -28.5t26.5 -71.5q0 -73 -77.5 -145.5t-178.5 -110.5z M434 1280q0 -63 34 -100t85 -37q100 0 100 127q0 63 -33.5 100t-84.5 37q-101 0 -101 -127z" />
<glyph unicode="&#x1fc;" horiz-adv-x="1880" d="M-16 0v74l63 10q59 9 118.5 58t106.5 130l559 959q17 30 17 49q0 28 -31.5 43.5t-99.5 26.5l-64 10v74q281 -9 426 -9l686 9v-336h-67q-16 114 -104 183t-242 69q-88 0 -127 -13v-557h131q153 0 176 146l14 94h74q-8 -133 -8 -262q0 -51 2 -111.5t4 -95.5l2 -35h-76 l-12 51q-12 53 -48 79t-102 26h-157v-455q0 -133 166 -133q127 0 223 85.5t141 219.5l68 -8l-68 -381q-475 8 -692 8q-72 0 -147.5 -2t-114.5 -4l-39 -2v74l49 10q131 26 131 188v256h-399l-142 -256q-34 -63 -34 -104q0 -70 88 -84l59 -10v-74q-144 8 -281 8 q-50 0 -112.5 -2t-99.5 -4zM608 641h334v594zM1096 1583l149 328q15 6 39 6q40 0 66 -28.5t26 -71.5q0 -73 -77.5 -145.5t-178.5 -110.5z" />
<glyph unicode="&#x1fd;" horiz-adv-x="1511" d="M66 178q0 151 138.5 229t395.5 78q4 100 4 166q0 106 -36 150.5t-122 44.5q-62 0 -90 -34.5t-28 -76.5q0 -35 16 -61q-37 -37 -108 -37q-59 0 -91 29t-32 75q0 64 59.5 113.5t150.5 74.5t193 25q86 0 163 -35t105 -92q137 127 336 127q175 0 262.5 -96.5t87.5 -257.5 l-47 -57l-585 8q-4 -35 -4 -72q0 -71 19.5 -133t60 -113.5t110.5 -81.5t162 -30q110 0 231 37l29 -54q-83 -70 -175 -103.5t-218 -33.5q-195 0 -320 119q-28 -3 -71 -22t-84.5 -40.5t-109 -39t-138.5 -17.5q-114 0 -189 56t-75 155zM307 213q0 -55 40 -88t108 -33 q47 0 127.5 26t97.5 29q-74 110 -80 261q-76 -1 -140 -20.5t-108.5 -65t-44.5 -109.5zM764 1077l209 426q15 6 39 6q43 0 71.5 -28.5t28.5 -69.5q0 -45 -22.5 -93t-57.5 -88t-79 -76.5t-85 -61.5t-77 -41zM848 631l383 22q2 10 2 33q0 21 -2.5 41t-11.5 46t-24 44.5 t-43.5 31.5t-66.5 13q-89 0 -153 -63t-84 -168z" />
<glyph unicode="&#x1fe;" horiz-adv-x="1646" d="M59 680q0 121 33.5 235t101.5 213.5t163 173.5t227.5 117t285.5 43q196 0 355 -84l96 131h184q-13 -17 -43.5 -55.5t-60.5 -77.5t-58 -76q116 -95 180 -234.5t64 -315.5q0 -101 -24 -197.5t-69 -183.5t-115.5 -160.5t-158.5 -127.5t-202 -84t-242 -30q-194 0 -360 86 l-90 -125h-185q18 25 71.5 93t84.5 110q-112 95 -175 234.5t-63 314.5zM365 743q0 -229 92 -405q161 213 647 874q-139 148 -324 148q-90 0 -161 -32t-118 -87t-78 -134t-44.5 -169t-13.5 -195zM539 221q135 -151 327 -151q112 0 194 47.5t129.5 134t70 194t22.5 240.5 q0 233 -96 410q-216 -283 -647 -875zM760 1583l149 328q15 6 39 6q40 0 66 -28.5t26 -71.5q0 -73 -77.5 -145.5t-178.5 -110.5z" />
<glyph unicode="&#x1ff;" horiz-adv-x="1136" d="M29 -33q59 60 141 148q-119 125 -119 317q0 143 64 260.5t191 189.5t296 72q143 0 256 -61l55 59h197q-61 -59 -143 -143q120 -126 120 -320q0 -106 -37.5 -201t-106 -166.5t-173.5 -113t-231 -41.5q-147 0 -263 64l-53 -64h-194zM322 479q0 -91 24 -170q153 167 381 439 q-73 110 -180 110q-56 0 -100.5 -32.5t-71 -87t-40 -120.5t-13.5 -139zM403 182q78 -119 189 -119q57 0 101.5 32t71.5 86.5t40.5 121t13.5 139.5q0 79 -28 179q-63 -68 -388 -439zM471 1077l209 426q15 6 39 6q43 0 71.5 -28.5t28.5 -69.5q0 -45 -22.5 -93t-57.5 -88 t-79 -76.5t-85 -61.5t-77 -41z" />
<glyph unicode="&#x218;" horiz-adv-x="1067" d="M74 33v377h67q36 -338 348 -338q119 0 187.5 60t68.5 157q0 68 -35.5 126t-92 101.5t-125 85.5t-137.5 88.5t-125.5 100t-92 131t-35.5 170.5q0 167 127.5 268.5t335.5 101.5q66 0 193.5 -21.5t195.5 -21.5l-20 -354h-68q-14 142 -103.5 217.5t-221.5 75.5 q-93 0 -153 -55t-60 -138q0 -60 36.5 -113.5t94.5 -95.5t128.5 -84.5t141.5 -90.5t129 -102t94.5 -130t36.5 -164q0 -90 -28.5 -164t-85.5 -132t-152.5 -90t-220.5 -32q-91 0 -229.5 33t-198.5 33zM342 -551q64 23 102.5 67.5t38.5 92.5q0 76 -94 123q0 63 40 104t106 41 q70 0 111.5 -46t41.5 -114q0 -62 -28.5 -116.5t-76.5 -92.5t-103.5 -65t-117.5 -43z" />
<glyph unicode="&#x219;" horiz-adv-x="831" d="M82 295h72q9 -115 72 -173.5t163 -58.5q79 0 126.5 36.5t47.5 90.5q0 42 -19.5 76t-51.5 56.5t-72.5 44.5t-83.5 40.5t-83.5 44.5t-72.5 55.5t-51.5 75.5t-19.5 103q0 119 95 193.5t255 74.5q80 0 154.5 -18t123.5 -18l-14 -267h-70q-5 92 -56.5 149.5t-145.5 57.5 q-66 0 -102 -33.5t-36 -87.5q0 -38 25.5 -69t66 -53.5t90 -45t98.5 -50t89.5 -61.5t66 -87t25.5 -119q0 -72 -31.5 -128t-86.5 -89.5t-124 -50.5t-149 -17q-63 0 -158 21.5t-133 21.5zM213 -551q64 23 102.5 67.5t38.5 92.5q0 76 -94 123q0 63 40 104t106 41q70 0 111.5 -46 t41.5 -114q0 -62 -28.5 -116.5t-76.5 -92.5t-103.5 -65t-117.5 -43z" />
<glyph unicode="&#x21a;" horiz-adv-x="1368" d="M53 1147l25 319h47q17 -32 84 -32h981q60 0 78 32h47l-23 -329l-59 10q0 180 -246 180h-162v-1104q0 -75 22.5 -101.5t92.5 -37.5l64 -10v-74q-183 8 -328 8q-72 0 -150.5 -2t-121.5 -4l-42 -2v74l50 10q131 26 131 188v1055h-148q-107 0 -176 -43.5t-106 -146.5z M514 -551q64 23 102.5 67.5t38.5 92.5q0 76 -94 123q0 63 40 104t106 41q70 0 111.5 -46t41.5 -114q0 -62 -28.5 -116.5t-76.5 -92.5t-103 -65t-117 -43z" />
<glyph unicode="&#x21b;" horiz-adv-x="776" d="M31 870q90 34 178 111t145 158l64 -19v-198h291v-125h-291v-557q0 -129 135 -129q50 0 96.5 7t68.5 14l21 7l17 -59q-42 -33 -77.5 -53.5t-104.5 -40t-150 -19.5q-114 0 -183 66.5t-69 187.5v588h-133zM231 -551q64 23 103 67.5t39 92.5q0 76 -94 123q0 63 39.5 104 t105.5 41q70 0 112 -46t42 -114q0 -62 -28.5 -116.5t-76.5 -92.5t-103.5 -65t-117.5 -43z" />
<glyph unicode="&#x237;" horiz-adv-x="634" d="M-59 -406q24 22 91.5 70t102.5 94q72 95 72 281v637q0 59 -32.5 85.5t-100.5 26.5l-19 62q88 8 187 33.5t154 46.5l55 22v-811q0 -152 -31.5 -250t-106.5 -174q-42 -42 -103.5 -70.5t-125.5 -53.5t-102 -54z" />
<glyph unicode="&#x2b0;" horiz-adv-x="1003" d="M59 594v57l35 6q39 6 62.5 32.5t23.5 68.5v839q0 47 -25.5 68t-80.5 21l-15 55q71 6 150 26.5t123 38.5l43 17v-586q21 3 52 23t59.5 41.5t73 39t91.5 17.5q102 0 157.5 -59.5t55.5 -159.5v-394q0 -44 13.5 -62.5t42.5 -23.5l51 -8v-57q-105 4 -209 4l-197 -4v57l23 6 q37 8 58.5 34t21.5 67v348q0 60 -30.5 92.5t-90.5 32.5q-35 0 -94 -31t-78 -33v-422q0 -44 13 -62t44 -24l49 -8v-57q-103 4 -207 4z" />
<glyph unicode="&#x2b2;" horiz-adv-x="507" d="M-47 272q21 20 74.5 57.5t81.5 73.5q57 76 57 226v501q0 91 -107 91l-14 53q70 6 149 26.5t122 37.5l44 18v-649q0 -122 -25 -201t-85 -139q-43 -43 -137.5 -80t-126.5 -62zM129 1667q0 47 35 80t86 33q50 0 84.5 -33t34.5 -80q0 -49 -34.5 -83t-84.5 -34q-51 0 -86 34 t-35 83z" />
<glyph unicode="&#x2b7;" horiz-adv-x="1296" d="M10 1278v53q101 -6 207 -6l193 6v-53l-33 -8q-28 -7 -41.5 -16.5t-13.5 -28.5q0 -13 8 -33l125 -377l143 344q20 52 20 70q0 31 -49 41l-32 8v53q98 -4 204 -4l164 -506l146 355q12 35 12 53q0 31 -47 41l-35 8v53q82 -4 154 -4l147 4v-53l-35 -8q-42 -9 -70 -38t-51 -83 l-239 -580h-70l-176 478l-205 -478h-71l-238 609q-19 47 -36.5 66.5t-45.5 25.5z" />
<glyph unicode="&#x2b8;" horiz-adv-x="862" d="M-63 346q0 37 26 65.5t74 28.5q21 0 39 -4q-4 -12 -4 -20q0 -27 20 -44.5t53 -17.5q116 0 179 146l38 92l-227 582q-19 46 -37 65t-47 25l-33 8v59q101 -6 205 -6l195 6v-59l-33 -8q-29 -7 -42 -16t-13 -29q0 -13 8 -37l127 -371l141 344q19 52 19 68q0 31 -47 41l-35 8 v59q81 -6 153 -6l148 6v-59l-35 -8q-42 -9 -68 -37t-51 -84l-282 -664q-104 -250 -314 -250q-75 0 -116 33.5t-41 83.5z" />
<glyph unicode="&#x2c6;" horiz-adv-x="845" d="M63 1145l367 356l350 -352q0 -31 -24 -57.5t-72 -26.5q-60 0 -117.5 56.5t-92 124.5t-52.5 132l-207 -317z" />
<glyph unicode="&#x2c7;" horiz-adv-x="845" d="M63 1432l152 84l207 -318q18 64 52.5 132t92 124.5t117.5 56.5q48 0 72 -26.5t24 -57.5l-350 -352z" />
<glyph unicode="&#x2d8;" horiz-adv-x="722" d="M45 1436h182q0 -195 166 -195q95 0 145 50.5t50 144.5h88q0 -163 -82.5 -251.5t-224.5 -88.5q-150 0 -237 87t-87 253z" />
<glyph unicode="&#x2d9;" horiz-adv-x="569" d="M135 1341q0 60 43 101t107 41q62 0 104.5 -41t42.5 -101q0 -61 -42.5 -103t-104.5 -42q-64 0 -107 41.5t-43 103.5z" />
<glyph unicode="&#x2da;" horiz-adv-x="591" d="M70 1307q0 86 64 151.5t175 65.5q92 0 152.5 -55t60.5 -150q0 -89 -64 -154t-175 -65q-93 0 -153 55t-60 152zM186 1317q0 -63 34 -100t85 -37q101 0 101 127q0 63 -34 100t-85 37q-101 0 -101 -127z" />
<glyph unicode="&#x2db;" horiz-adv-x="499" d="M27 -319q0 43 17.5 85.5t45.5 75.5t62 63t67.5 51t61.5 36.5t45 23.5l18 7l31 -43q-172 -138 -172 -259q0 -51 34.5 -82.5t88.5 -31.5q32 0 58.5 12t39.5 29q24 -6 36.5 -23t12.5 -37q0 -40 -49.5 -73t-140.5 -33q-117 0 -186.5 52.5t-69.5 146.5z" />
<glyph unicode="&#x2dc;" horiz-adv-x="794" d="M49 1188q15 95 65 156t138 61q54 0 110 -24.5t106.5 -49t90.5 -24.5q92 0 133 100l51 -43q-15 -94 -64.5 -154.5t-137.5 -60.5q-50 0 -105 24.5t-107.5 49t-95.5 24.5q-92 0 -133 -100z" />
<glyph unicode="&#x2dd;" horiz-adv-x="917" d="M119 1077l209 426q15 6 39 6q43 0 71.5 -28.5t28.5 -69.5q0 -56 -34 -115.5t-85.5 -106.5t-104 -82.5t-98.5 -55.5zM449 1077l208 426q15 6 39 6q44 0 72.5 -28.5t28.5 -69.5q0 -56 -34 -115.5t-85.5 -106.5t-104 -82.5t-98.5 -55.5z" />
<glyph unicode="&#x2e3;" horiz-adv-x="897" d="M-2 594v55l29 6q83 14 168 109l172 190l-170 238q-44 59 -117 74l-41 8v57q80 -4 213 -4l201 4v-57l-27 -8q-27 -9 -27 -31q0 -19 17 -53l65 -97l94 107q25 29 25 45q0 26 -27 31l-26 6v57q77 -4 155 -4l162 4v-57l-43 -8q-85 -17 -159 -99l-138 -151l199 -277 q27 -37 59 -55t84 -29l27 -6v-55q-86 4 -221 4l-215 -4v55l24 6q47 9 47 52q0 21 -14 41l-98 145l-127 -143q-29 -37 -29 -60q0 -27 33 -35l26 -6v-55q-90 4 -174 4z" />
<glyph unicode="&#x3a9;" horiz-adv-x="1705" d="M74 350h67q17 -84 60 -129t135 -45h223q-37 52 -102 121.5t-120 128t-108.5 128t-84.5 150t-31 166.5q0 121 38.5 220t106.5 167.5t162 115t202 68t230 21.5t230 -21.5t202 -68t162 -115t106.5 -167.5t38.5 -220q0 -86 -31 -166.5t-84.5 -150t-108.5 -128t-120 -128 t-102 -121.5h223q92 0 135 45t60 129h67l-43 -350h-629q3 93 42 187.5t92 173t106 157.5t90 170.5t37 181.5q0 222 -126.5 357t-346.5 135t-346.5 -135t-126.5 -357q0 -77 26.5 -155t66 -141t86.5 -134.5t87.5 -135.5t69 -144.5t30.5 -159.5h-628z" />
<glyph unicode="&#x3c0;" horiz-adv-x="1243" d="M86 582q0 159 85 240t241 81h520q81 0 123 11.5t69 39.5l33 -14q-23 -106 -82.5 -147.5t-189.5 -44.5q-51 -192 -51 -422q0 -100 20.5 -146.5t71.5 -46.5q97 0 184 119l47 -31q-58 -133 -134 -193.5t-179 -60.5q-39 0 -70 9.5t-51.5 24.5t-35 39t-22 46.5t-12 53.5 t-5.5 53t-1 53q0 152 125 502h-268q-6 -49 -11.5 -130.5t-10.5 -148t-14.5 -146t-26 -139t-41.5 -111t-65.5 -79t-94.5 -27.5q-46 0 -76.5 35t-30.5 84q199 129 250 662q-98 -3 -159 -44t-83 -141z" />
<glyph unicode="&#x1e80;" horiz-adv-x="2234" d="M25 1360v74q135 -9 311 -9q68 0 147.5 2.5t124.5 4.5l45 2v-74l-32 -10q-82 -25 -82 -103q0 -31 18 -90l256 -805l252 832q8 28 8 59q0 51 -33 75t-94 32l-65 10v74q256 -9 428 -9q2 -108 41 -233l268 -840l264 801q21 68 21 96q0 42 -28.5 67.5t-92.5 35.5l-53 8v74 q133 -9 270 -9q45 0 97.5 2.5t81.5 4.5l30 2v-74l-27 -8q-111 -35 -160 -176l-413 -1194l-129 -15l-351 1041l-317 -1026l-141 -15l-434 1233q-22 62 -57.5 100t-104.5 50zM924 1817q0 43 26 71.5t66 28.5q24 0 39 -6l149 -328l-24 -22q-101 38 -178.5 110.5t-77.5 145.5z " />
<glyph unicode="&#x1e81;" horiz-adv-x="1619" d="M12 854v68q127 -9 258 -9q59 0 119.5 2.5t91.5 4.5l31 2v-68l-41 -10q-35 -9 -52.5 -21.5t-17.5 -36.5q0 -2 11 -41l155 -471l181 433q24 63 24 86q0 38 -59 51l-43 10v68q110 -7 258 -7l202 -632l183 442q16 42 16 68q0 38 -59 51l-43 10v68q102 -7 192 -7l185 7v-68 l-45 -10q-53 -12 -88 -48t-64 -104l-299 -725h-86l-221 598l-256 -598h-90l-295 762q-23 58 -46 82.5t-59 32.5zM537 1411q0 41 28.5 69.5t71.5 28.5q24 0 39 -6l209 -426l-27 -26q-36 16 -77 41t-85 61.5t-79 76.5t-57.5 88t-22.5 93z" />
<glyph unicode="&#x1e82;" horiz-adv-x="2232" d="M25 1360v74q135 -9 311 -9q68 0 147.5 2.5t124.5 4.5l45 2v-74l-32 -10q-82 -25 -82 -103q0 -31 18 -90l256 -805l252 832q8 28 8 59q0 51 -33 75t-94 32l-65 10v74q256 -9 428 -9q2 -108 41 -233l268 -840l264 801q21 68 21 96q0 42 -28.5 67.5t-92.5 35.5l-53 8v74 q133 -9 270 -9q45 0 97.5 2.5t81.5 4.5l30 2v-74l-27 -8q-111 -35 -160 -176l-413 -1194l-129 -15l-351 1041l-317 -1026l-141 -15l-434 1233q-22 62 -57.5 100t-104.5 50zM1102 1583l149 328q15 6 39 6q40 0 66 -28.5t26 -71.5q0 -73 -77.5 -145.5t-178.5 -110.5z" />
<glyph unicode="&#x1e83;" horiz-adv-x="1624" d="M12 854v68q127 -9 258 -9q59 0 119.5 2.5t91.5 4.5l31 2v-68l-41 -10q-35 -9 -52.5 -21.5t-17.5 -36.5q0 -2 11 -41l155 -471l181 433q24 63 24 86q0 38 -59 51l-43 10v68q110 -7 258 -7l202 -632l183 442q16 42 16 68q0 38 -59 51l-43 10v68q102 -7 192 -7l185 7v-68 l-45 -10q-53 -12 -88 -48t-64 -104l-299 -725h-86l-221 598l-256 -598h-90l-295 762q-23 58 -46 82.5t-59 32.5zM805 1077l209 426q15 6 39 6q43 0 71.5 -28.5t28.5 -69.5q0 -56 -34 -115.5t-85.5 -106.5t-104 -82.5t-98.5 -55.5z" />
<glyph unicode="&#x1e84;" horiz-adv-x="2232" d="M25 1360v74q135 -9 311 -9q68 0 147.5 2.5t124.5 4.5l45 2v-74l-32 -10q-82 -25 -82 -103q0 -31 18 -90l256 -805l252 832q8 28 8 59q0 51 -33 75t-94 32l-65 10v74q256 -9 428 -9q2 -108 41 -233l268 -840l264 801q21 68 21 96q0 42 -28.5 67.5t-92.5 35.5l-53 8v74 q133 -9 270 -9q45 0 97.5 2.5t81.5 4.5l30 2v-74l-27 -8q-111 -35 -160 -176l-413 -1194l-129 -15l-351 1041l-317 -1026l-141 -15l-434 1233q-22 62 -57.5 100t-104.5 50zM805 1731q0 57 36.5 94t92.5 37q57 0 94 -37t37 -94q0 -56 -37 -92.5t-94 -36.5q-56 0 -92.5 37 t-36.5 92zM1227 1731q0 57 36.5 94t92.5 37q57 0 94 -37t37 -94q0 -56 -37 -92.5t-94 -36.5q-56 0 -92.5 37t-36.5 92z" />
<glyph unicode="&#x1e85;" horiz-adv-x="1624" d="M12 854v68q127 -9 258 -9q59 0 119.5 2.5t91.5 4.5l31 2v-68l-41 -10q-35 -9 -52.5 -21.5t-17.5 -36.5q0 -2 11 -41l155 -471l181 433q24 63 24 86q0 38 -59 51l-43 10v68q110 -7 258 -7l202 -632l183 442q16 42 16 68q0 38 -59 51l-43 10v68q102 -7 192 -7l185 7v-68 l-45 -10q-53 -12 -88 -48t-64 -104l-299 -725h-86l-221 598l-256 -598h-90l-295 762q-23 58 -46 82.5t-59 32.5zM510 1247q0 57 36.5 94t92.5 37q57 0 94 -37t37 -94q0 -56 -37 -92.5t-94 -36.5q-55 0 -92 37t-37 92zM911 1247q0 57 36.5 94t92.5 37q57 0 94 -37t37 -94 q0 -56 -37 -92.5t-94 -36.5q-56 0 -92.5 37t-36.5 92z" />
<glyph unicode="&#x1ef2;" horiz-adv-x="1482" d="M25 1360v74q135 -11 299 -11q83 0 161 2.5t115 5.5l37 3v-74l-33 -10q-55 -18 -55 -70q0 -30 22 -72l260 -477l263 475q22 42 22 70q0 56 -76 74l-41 10v74q140 -9 267 -9q47 0 95 2.5t73 4.5l24 2v-74l-41 -10q-71 -18 -122 -60t-103 -133l-303 -530v-404 q0 -74 26.5 -101t98.5 -38l63 -10v-74q-193 8 -338 8q-72 0 -152.5 -2t-125.5 -4l-45 -2v74l49 10q141 28 141 188v340l-317 568q-79 142 -217 170zM575 1817q0 43 26.5 71.5t66.5 28.5q24 0 39 -6l149 -328l-25 -22q-101 38 -178.5 110.5t-77.5 145.5z" />
<glyph unicode="&#x1ef3;" horiz-adv-x="1077" d="M-76 -311q0 46 31.5 79t91.5 33q24 0 47 -6q-4 -16 -4 -24q0 -33 25 -52.5t67 -19.5q144 0 224 184l49 115l-285 731q-23 58 -45.5 82.5t-58.5 32.5l-43 10v68q127 -9 258 -9q59 0 119.5 2.5t91.5 4.5l30 2v-68l-41 -10q-35 -8 -52 -21t-17 -37q0 -6 10 -41l160 -473 l176 435q24 63 24 86q0 38 -59 51l-43 10v68q102 -7 190 -7l185 7v-68l-43 -10q-53 -11 -85.5 -47t-62.5 -105l-354 -835q-21 -50 -46 -93t-60.5 -84.5t-76.5 -70.5t-94.5 -46.5t-113.5 -17.5q-94 0 -144.5 40.5t-50.5 103.5zM291 1411q0 41 28.5 69.5t71.5 28.5q24 0 39 -6 l209 -426l-27 -26q-36 16 -77 41t-85 61.5t-79 76.5t-57.5 88t-22.5 93z" />
<glyph unicode="&#x2000;" horiz-adv-x="1101" />
<glyph unicode="&#x2001;" horiz-adv-x="2202" />
<glyph unicode="&#x2002;" horiz-adv-x="1101" />
<glyph unicode="&#x2003;" horiz-adv-x="2202" />
<glyph unicode="&#x2004;" horiz-adv-x="734" />
<glyph unicode="&#x2005;" horiz-adv-x="550" />
<glyph unicode="&#x2006;" horiz-adv-x="367" />
<glyph unicode="&#x2007;" horiz-adv-x="367" />
<glyph unicode="&#x2008;" horiz-adv-x="275" />
<glyph unicode="&#x2009;" horiz-adv-x="440" />
<glyph unicode="&#x200a;" horiz-adv-x="122" />
<glyph unicode="&#x2010;" horiz-adv-x="729" d="M59 481q96 73 232.5 138t257.5 65q57 0 89 -26t32 -70q0 -29 -8 -41l-574 -109z" />
<glyph unicode="&#x2011;" horiz-adv-x="729" d="M59 481q96 73 232.5 138t257.5 65q57 0 89 -26t32 -70q0 -29 -8 -41l-574 -109z" />
<glyph unicode="&#x2012;" horiz-adv-x="729" d="M59 481q96 73 232.5 138t257.5 65q57 0 89 -26t32 -70q0 -29 -8 -41l-574 -109z" />
<glyph unicode="&#x2013;" horiz-adv-x="1253" d="M111 528v134h1032v-134h-1032z" />
<glyph unicode="&#x2014;" horiz-adv-x="2269" d="M111 528v134h2046v-134h-2046z" />
<glyph unicode="&#x2018;" horiz-adv-x="532" d="M86 1212q0 157 94 270.5t244 139.5l20 -49q-79 -31 -126.5 -90t-47.5 -127q0 -125 117 -187q0 -63 -37.5 -105t-99.5 -42q-73 0 -118.5 57.5t-45.5 132.5z" />
<glyph unicode="&#x2019;" horiz-adv-x="532" d="M88 1034q79 31 126.5 90t47.5 127q0 125 -117 187q0 63 38 105t100 42q73 0 118 -57.5t45 -132.5q0 -158 -93.5 -271t-243.5 -139z" />
<glyph unicode="&#x201a;" horiz-adv-x="571" d="M78 -289q79 31 126.5 90t47.5 127q0 125 -117 187q0 63 37.5 105t99.5 42q73 0 118.5 -57.5t45.5 -132.5q0 -157 -94 -270.5t-244 -139.5z" />
<glyph unicode="&#x201c;" horiz-adv-x="917" d="M86 1212q0 157 94 270.5t244 139.5l20 -49q-79 -31 -126.5 -90t-47.5 -127q0 -125 117 -187q0 -63 -37.5 -105t-99.5 -42q-73 0 -118.5 57.5t-45.5 132.5zM471 1212q0 157 94 270.5t244 139.5l20 -49q-79 -31 -126.5 -90t-47.5 -127q0 -125 117 -187q0 -63 -37.5 -105 t-99.5 -42q-73 0 -118.5 57.5t-45.5 132.5z" />
<glyph unicode="&#x201d;" horiz-adv-x="917" d="M88 1034q79 31 126.5 90t47.5 127q0 125 -117 187q0 63 38 105t100 42q73 0 118 -57.5t45 -132.5q0 -158 -93.5 -271t-243.5 -139zM473 1034q79 31 126.5 90t47.5 127q0 125 -117 187q0 63 38 105t100 42q73 0 118 -57.5t45 -132.5q0 -158 -93.5 -271t-243.5 -139z" />
<glyph unicode="&#x201e;" horiz-adv-x="980" d="M78 -289q79 31 126.5 90t47.5 127q0 125 -117 187q0 63 37.5 105t99.5 42q73 0 118.5 -57.5t45.5 -132.5q0 -157 -94 -270.5t-244 -139.5zM487 -289q79 31 127 90t48 127q0 125 -117 187q0 63 37.5 105t99.5 42q73 0 118.5 -57.5t45.5 -132.5q0 -157 -94 -270.5 t-244 -139.5z" />
<glyph unicode="&#x2020;" horiz-adv-x="1243" d="M106 864q0 51 43 74t99 23q58 0 165 -31t162 -31q-3 70 -47.5 202t-44.5 202q0 72 35 115.5t103 43.5t102.5 -43.5t34.5 -115.5q0 -70 -44.5 -202t-47.5 -202q55 0 162 31t165 31q56 0 99 -23t43 -74q0 -39 -26 -62.5t-55 -29.5t-63 -6q-56 0 -163 32t-164 33 q-7 -63 -7 -104q0 -132 113 -283q-5 -5 -12 -14.5t-26.5 -40t-34 -61.5t-26.5 -75.5t-12 -86.5v-559h-77v559q0 67 -28 136.5t-56 105.5l-27 36q113 151 113 283l-6 104q-57 -1 -164.5 -33t-163.5 -32q-34 0 -63 6t-55 29.5t-26 62.5z" />
<glyph unicode="&#x2021;" horiz-adv-x="1241" d="M104 197q0 39 26 62.5t55 29.5t63 6q55 0 162 -33t165 -33q0 184 -106 301q106 117 106 301q-58 0 -165 -32.5t-162 -32.5q-34 0 -63 6t-55 29.5t-26 62.5q0 51 43 74t99 23q58 0 165 -31t162 -31q-3 70 -47.5 202t-44.5 202q0 73 34 116t103 43q71 0 105.5 -43 t34.5 -116q0 -70 -44.5 -202t-47.5 -202q55 0 162 31t165 31q56 0 99 -23t43 -74q0 -39 -26 -62.5t-55 -29.5t-63 -6q-55 0 -162 32.5t-165 32.5q0 -184 106 -301q-106 -117 -106 -301q58 0 165 33t162 33q34 0 63 -6t55 -29.5t26 -62.5q0 -51 -43 -74t-99 -23 q-58 0 -165 31t-162 31q3 -70 47.5 -202t44.5 -202q0 -73 -34.5 -116t-105.5 -43q-69 0 -103 43t-34 116q0 70 44.5 202t47.5 202q-55 0 -162 -31t-165 -31q-56 0 -99 23t-43 74z" />
<glyph unicode="&#x2022;" horiz-adv-x="1024" d="M154 514q0 149 104.5 253.5t253.5 104.5t253.5 -104.5t104.5 -253.5q0 -148 -104.5 -253t-253.5 -105t-253.5 105t-104.5 253z" />
<glyph unicode="&#x202f;" horiz-adv-x="440" />
<glyph unicode="&#x2030;" horiz-adv-x="2330" d="M68 975q0 139 96 240.5t258 101.5q132 0 222.5 -85t90.5 -228q0 -139 -96 -240.5t-258 -101.5q-132 0 -222.5 85t-90.5 228zM252 999q0 -117 46 -181t118 -64q65 0 100 61.5t35 163.5q0 117 -46 181.5t-118 64.5q-64 0 -99.5 -62t-35.5 -164zM270 -51q98 134 422.5 662 t409.5 689h196q-109 -143 -430.5 -670t-400.5 -681h-197zM834 242q0 139 96 240.5t258 101.5q132 0 222.5 -85.5t90.5 -228.5q0 -139 -96 -240.5t-258 -101.5q-132 0 -222.5 85.5t-90.5 228.5zM1018 266q0 -117 46 -181.5t118 -64.5q64 0 99.5 62t35.5 164q0 117 -46 181.5 t-118 64.5q-64 0 -99.5 -62t-35.5 -164zM1595 242q0 139 96.5 240.5t258.5 101.5q132 0 222.5 -85.5t90.5 -228.5q0 -139 -96 -240.5t-258 -101.5q-132 0 -223 85.5t-91 228.5zM1780 266q0 -117 46 -181.5t118 -64.5q64 0 99.5 62t35.5 164q0 117 -46 181.5t-118 64.5 q-64 0 -99.5 -62t-35.5 -164z" />
<glyph unicode="&#x2039;" horiz-adv-x="708" d="M117 487l340 457l98 -123l-301 -329q47 -29 94.5 -66.5t97 -86t80.5 -103.5t31 -103t-29.5 -78t-66.5 -30z" />
<glyph unicode="&#x203a;" horiz-adv-x="708" d="M150 836q0 48 29.5 78t66.5 30l344 -463l-340 -456l-98 122l301 330q-47 29 -94.5 66.5t-97 86t-80.5 103.5t-31 103z" />
<glyph unicode="&#x2044;" horiz-adv-x="825" d="M-76 -145q80 163 240 506t343.5 740t244.5 527l151 -67q-76 -153 -204.5 -423.5t-228 -484t-238 -511.5t-164.5 -355z" />
<glyph unicode="&#x205f;" horiz-adv-x="550" />
<glyph unicode="&#x2070;" horiz-adv-x="845" d="M47 1069q0 205 103.5 336t291.5 131q150 0 253.5 -116.5t103.5 -311.5q0 -203 -104.5 -336t-288.5 -133q-152 0 -255.5 117t-103.5 313zM250 1104q0 -167 55.5 -272t130.5 -105q76 0 118 98.5t42 247.5q0 167 -57 273t-129 106q-78 0 -119 -99t-41 -249z" />
<glyph unicode="&#x2074;" horiz-adv-x="794" d="M33 924l203 290q69 95 69 197q0 56 -26 100q41 25 81 25q53 0 85 -36.5t32 -82.5q0 -47 -29 -103t-59 -93t-88 -101l-121 -133h221v131l187 94v-225h166v-104h-166v-86q0 -30 9.5 -44t35.5 -18l53 -10v-66h-379v62l49 14q45 11 45 58v90h-348z" />
<glyph unicode="&#x2075;" horiz-adv-x="704" d="M61 758q0 35 26.5 57.5t66.5 22.5q32 0 61 -11q-4 -20 -4 -30q0 -34 21.5 -54t56.5 -20q76 0 125 56t49 141t-57 136.5t-140 51.5q-30 0 -60 -9t-44 -17l-15 -9l-38 19l41 430h321q94 0 129 86l49 -11l-33 -211h-385l-16 -167q48 16 107 16q156 0 246.5 -81.5 t90.5 -203.5q0 -96 -55 -168t-141.5 -107.5t-188.5 -35.5q-95 0 -154 32t-59 87z" />
<glyph unicode="&#x2076;" horiz-adv-x="770" d="M43 973q0 100 37 189.5t97.5 155t139 117t160.5 82.5t164 44l27 -60q-166 -46 -272 -150.5t-136 -240.5q15 2 83.5 34t125.5 32q106 0 178 -71.5t72 -178.5q0 -119 -96 -203t-261 -84q-136 0 -227.5 91.5t-91.5 242.5zM248 965q0 -101 42 -175.5t109 -74.5q55 0 86 54.5 t31 129.5q0 72 -35 125t-92 53q-24 0 -68.5 -17.5t-68.5 -21.5q-4 -27 -4 -73z" />
<glyph unicode="&#x2077;" horiz-adv-x="731" d="M35 1280l51 242h590l18 -25l-207 -360q-110 -188 -110 -314q0 -44 7.5 -84t15.5 -59l8 -18q-37 -23 -82 -23q-63 0 -104.5 46.5t-41.5 111.5q0 63 30 129t103 164l230 309l-283 -15q-76 -4 -115.5 -31t-58.5 -83z" />
<glyph unicode="&#x2078;" horiz-adv-x="692" d="M41 854q0 45 23 84.5t51.5 62t61.5 49t46 44.5q-65 46 -94.5 72.5t-49.5 63t-20 83.5q0 100 85 161.5t218 61.5q118 0 199.5 -55.5t81.5 -145.5q0 -36 -13 -66.5t-34 -51.5t-42.5 -37.5t-43 -33.5t-31.5 -32q168 -106 168 -229q0 -62 -29.5 -111.5t-76.5 -77.5t-99 -42.5 t-104 -14.5q-124 0 -210.5 57.5t-86.5 157.5zM225 854q0 -57 33.5 -95t77.5 -38q58 0 86.5 33t28.5 88q0 31 -14.5 62t-35.5 53.5t-42 40.5t-35 27l-15 9q-8 -13 -28.5 -41.5t-29.5 -43.5t-17.5 -41t-8.5 -54zM252 1341q0 -53 35.5 -92.5t103.5 -83.5q4 6 17.5 28t19 32.5 t14 30t12 38.5t3.5 41q0 49 -30 85t-75 36q-43 0 -71.5 -31.5t-28.5 -83.5z" />
<glyph unicode="&#x2079;" horiz-adv-x="770" d="M43 1249q0 119 96 203t260 84q136 0 228 -91.5t92 -242.5q0 -100 -37 -189.5t-97.5 -155t-139 -117t-160.5 -82.5t-164 -44l-27 60q166 46 272 150.5t136 240.5q-15 -2 -83.5 -34t-125.5 -32q-106 0 -178 71.5t-72 178.5zM246 1276q0 -72 35 -125t92 -53q24 0 68.5 17.5 t68.5 21.5q4 27 4 73q0 101 -42.5 175.5t-109.5 74.5q-55 0 -85.5 -54.5t-30.5 -129.5z" />
<glyph unicode="&#x207f;" horiz-adv-x="987" d="M43 594v57l35 4q39 6 62.5 33.5t23.5 69.5v375q0 47 -26 68.5t-81 21.5l-14 51q71 6 150 26.5t122 37.5l43 18v-121q22 7 54.5 28.5t60 41t71.5 35.5t91 16q102 0 157.5 -59t55.5 -158v-394q0 -45 13 -63t42 -23l51 -8v-57q-105 4 -209 4l-196 -4v57l22 4q37 8 58.5 35 t21.5 68v350q0 123 -121 123q-34 0 -93 -30t-79 -32v-424q0 -45 13.5 -63t44.5 -23l49 -8v-57q-103 4 -207 4z" />
<glyph unicode="&#x2080;" horiz-adv-x="845" d="M47 143q0 205 103.5 336t291.5 131q150 0 253.5 -116.5t103.5 -311.5q0 -203 -104.5 -336t-288.5 -133q-152 0 -255.5 117t-103.5 313zM250 178q0 -167 55.5 -272t130.5 -105q76 0 118 98.5t42 247.5q0 167 -57 273t-129 106q-78 0 -119 -99t-41 -249z" />
<glyph unicode="&#x2081;" horiz-adv-x="614" d="M61 475q0 22 15 37q74 6 180.5 38t165.5 62l41 -4v-739q0 -27 11.5 -41.5t39.5 -20.5l72 -14v-61q-125 6 -221 6l-242 -4v61l55 12q96 22 96 113v547q-63 -49 -139 -49q-33 0 -53.5 15.5t-20.5 41.5z" />
<glyph unicode="&#x2082;" horiz-adv-x="743" d="M45 -227l184 198q56 60 87.5 96.5t70.5 91t57.5 105.5t18.5 101q0 62 -30 105.5t-93 43.5q-46 0 -75 -25.5t-29 -70.5q0 -20 6 -41q-22 -15 -64 -15q-44 0 -69 22.5t-25 59.5q0 64 71.5 115t206.5 51q141 0 220.5 -68t79.5 -167q0 -50 -21.5 -102t-49 -92t-81 -93.5 t-88.5 -84.5t-100 -85l-74 -61l268 12q54 3 90 33t51 73l52 -10l-52 -231h-596z" />
<glyph unicode="&#x2083;" horiz-adv-x="686" d="M57 -168q0 35 26.5 57.5t66.5 22.5q34 0 61 -10q-4 -20 -4 -31q0 -34 21.5 -54t56.5 -20q69 0 110 40t41 112q0 102 -74 156.5t-190 54.5l-16 57q237 64 237 205q0 40 -19.5 67t-60.5 27q-44 0 -69 -27.5t-25 -68.5q0 -28 8 -49q-33 -11 -65 -11q-45 0 -70.5 22.5 t-25.5 59.5q0 64 71 116t207 52q116 0 184 -51t68 -125q0 -150 -221 -198l2 -13q130 -22 195 -88t65 -149q0 -127 -105.5 -200t-261.5 -73q-95 0 -154 32t-59 87z" />
<glyph unicode="&#x2084;" horiz-adv-x="794" d="M33 -2l203 291q69 95 69 196q0 57 -26 101q39 24 81 24q53 0 85 -36t32 -82q0 -47 -29 -103t-59 -93t-88 -101l-121 -134h221v132l187 94v-226h166v-104h-166v-86q0 -30 9.5 -43.5t35.5 -17.5l53 -11v-65h-379v61l49 15q45 11 45 57v90h-348z" />
<glyph unicode="&#x2085;" horiz-adv-x="704" d="M61 -168q0 35 26.5 57.5t66.5 22.5q34 0 61 -10q-4 -20 -4 -31q0 -34 21.5 -54t56.5 -20q76 0 125 56t49 141t-57 136.5t-140 51.5q-30 0 -60 -9t-44 -17l-15 -9l-38 19l41 430h321q94 0 129 86l49 -10l-33 -211h-385l-16 -168q48 16 107 16q156 0 246.5 -81t90.5 -203 q0 -96 -55 -168.5t-141.5 -108t-188.5 -35.5q-95 0 -154 32t-59 87z" />
<glyph unicode="&#x2086;" horiz-adv-x="770" d="M43 47q0 100 37 189.5t97.5 155t139 117t160.5 82.5t164 44l27 -60q-166 -46 -272 -150.5t-136 -240.5q15 2 83.5 34t125.5 32q106 0 178 -71.5t72 -178.5q0 -119 -96 -203t-261 -84q-136 0 -227.5 91.5t-91.5 242.5zM248 39q0 -101 42 -175.5t109 -74.5q55 0 86 54.5 t31 129.5q0 72 -35 125.5t-92 53.5q-24 0 -68.5 -17.5t-68.5 -21.5q-4 -27 -4 -74z" />
<glyph unicode="&#x2087;" horiz-adv-x="731" d="M35 354l51 242h590l18 -25l-207 -360q-110 -188 -110 -313q0 -44 7.5 -84.5t15.5 -59.5l8 -18q-37 -23 -82 -23q-63 0 -104.5 46.5t-41.5 111.5q0 63 30 129t103 164l230 309l-283 -14q-76 -4 -115.5 -31.5t-58.5 -83.5z" />
<glyph unicode="&#x2088;" horiz-adv-x="692" d="M41 -72q0 45 23 84.5t51.5 62t61.5 49t46 44.5q-65 46 -94.5 72.5t-49.5 63t-20 83.5q0 100 85 161.5t218 61.5q118 0 199.5 -55t81.5 -145q0 -36 -13 -66.5t-34 -51.5t-42.5 -37.5t-43 -34.5t-31.5 -32q168 -106 168 -229q0 -62 -29.5 -111.5t-76.5 -77.5t-99 -42.5 t-104 -14.5q-124 0 -210.5 57.5t-86.5 157.5zM225 -72q0 -57 33.5 -95t77.5 -38q58 0 86.5 33t28.5 88q0 31 -14.5 62.5t-35.5 54t-42 40.5t-35 27l-15 9q-8 -12 -28.5 -41.5t-29 -44t-17.5 -41t-9 -54.5zM252 416q0 -53 35.5 -92.5t103.5 -83.5q4 6 17.5 28t19 32.5t14 30 t12 38.5t3.5 41q0 48 -30 84t-75 36q-44 0 -72 -31t-28 -83z" />
<glyph unicode="&#x2089;" horiz-adv-x="770" d="M43 324q0 119 95.5 202.5t260.5 83.5q136 0 228 -91.5t92 -242.5q0 -100 -37 -189.5t-97.5 -154.5t-139 -117t-160.5 -82.5t-164 -43.5l-27 59q166 46 272 150.5t136 240.5q-15 -2 -83.5 -33.5t-125.5 -31.5q-106 0 -178 71.5t-72 178.5zM246 350q0 -72 35 -125t92 -53 q24 0 68.5 17.5t68.5 21.5q4 27 4 74q0 101 -42.5 175.5t-109.5 74.5q-55 0 -85.5 -55t-30.5 -130z" />
<glyph unicode="&#x20ac;" horiz-adv-x="1380" d="M80 449l14 129q87 -5 135 -5q0 47 7 105l-130 -2l13 127q62 -4 145 -4q52 201 211 329.5t397 128.5q185 0 296.5 -67t111.5 -160q0 -54 -34 -88.5t-89 -34.5q-42 0 -67 8q-51 228 -236 228q-129 0 -224 -93.5t-134 -252.5q135 0 248.5 1.5t159.5 3.5l46 1l-20 -125 q-61 2 -453 2q-4 -31 -4 -109l440 4l-18 -126q-166 2 -414 4q15 -92 51 -157t89 -100t113 -50t134 -15q192 0 359 102l33 -55q-189 -209 -478 -209q-102 0 -191 27.5t-164 83t-125 150.5t-66 221z" />
<glyph unicode="&#x2122;" horiz-adv-x="1363" d="M57 1303l9 143h38q6 -14 29 -14h340q9 0 16 3.5t10 6.5l3 4h43l-10 -150l-35 4q0 43 -16.5 66t-59.5 23h-62v-379q0 -15 9.5 -25t18 -12.5t22.5 -5.5l22 -4v-39q-82 2 -131 2l-137 -2v39l22 4q50 9 50 80v342h-48q-48 0 -72 -23t-32 -70zM553 924v39l25 4q30 6 44 27 t17 61l25 286q2 19 -8.5 33t-30.5 17l-27 4v37q105 -5 166 -5q0 -19 12 -51l148 -315l125 295q7 16 11 34t4 28l1 9l195 5v-37l-23 -4q-19 -3 -29 -17.5t-8 -34.5l27 -323q3 -46 41 -49l37 -4v-39q-62 2 -150 2l-127 -2v39l23 4q52 13 47 73l-23 236l-147 -346l-47 -17 l-162 365l-19 -250q-2 -29 5.5 -43t33.5 -18l39 -4v-39q-43 2 -121 2z" />
<glyph unicode="&#x2153;" horiz-adv-x="1742" d="M61 1327q0 22 15 37q74 6 180.5 38t165.5 62l41 -4v-739q0 -27 11.5 -41.5t39.5 -20.5l72 -14v-61q-125 6 -221 6l-242 -4v61l55 12q96 22 96 113v547q-63 -49 -139 -49q-33 0 -53.5 15.5t-20.5 41.5zM381 -145q109 220 462 983.5t365 789.5l152 -67 q-76 -153 -206.5 -427.5t-225 -476.5t-241.5 -519t-163 -351zM1114 98q0 35 26 57.5t66 22.5q35 0 62 -10q-4 -20 -4 -31q0 -34 21 -54t56 -20q69 0 110.5 40t41.5 112q0 102 -74 156.5t-190 54.5l-17 57q238 64 238 205q0 40 -19.5 67t-60.5 27q-44 0 -69 -27.5t-25 -68.5 q0 -28 8 -49q-30 -10 -65 -10q-45 0 -71 22.5t-26 59.5q0 64 71.5 116t207.5 52q116 0 184 -51.5t68 -125.5q0 -150 -221 -198l2 -13q130 -22 195 -88t65 -149q0 -127 -105.5 -199.5t-261.5 -72.5q-95 0 -154 31.5t-59 86.5z" />
<glyph unicode="&#x2154;" horiz-adv-x="1810" d="M45 625l184 198q56 60 87.5 96.5t70.5 91t57.5 105.5t18.5 101q0 62 -30 105.5t-93 43.5q-46 0 -75 -25.5t-29 -70.5q0 -20 6 -41q-22 -15 -64 -15q-44 0 -69 22.5t-25 59.5q0 64 71.5 115t206.5 51q141 0 220.5 -68t79.5 -167q0 -50 -21.5 -102t-49 -92t-81 -93.5 t-88.5 -84.5t-100 -85l-74 -61l268 12q54 3 90 33t51 73l52 -10l-52 -231h-596zM449 -145q109 220 462 983.5t365 789.5l151 -67q-76 -153 -204.5 -423.5t-228 -484t-238 -511.5t-164.5 -355zM1182 98q0 35 26 57.5t66 22.5q34 0 61 -10q-4 -20 -4 -31q0 -34 21.5 -54 t56.5 -20q69 0 110.5 40t41.5 112q0 102 -74.5 156.5t-190.5 54.5l-16 57q238 64 238 205q0 40 -19.5 67t-60.5 27q-44 0 -69.5 -27.5t-25.5 -68.5q0 -25 9 -49q-30 -10 -66 -10q-45 0 -70.5 22.5t-25.5 59.5q0 64 71 116t207 52q116 0 184 -51.5t68 -125.5 q0 -150 -221 -198l2 -13q130 -22 195 -88t65 -149q0 -127 -105 -199.5t-261 -72.5q-95 0 -154 31.5t-59 86.5z" />
<glyph unicode="&#x215b;" horiz-adv-x="1753" d="M61 1327q0 22 15 37q74 6 180.5 38t165.5 62l41 -4v-739q0 -27 11.5 -41.5t39.5 -20.5l72 -14v-61q-125 6 -221 6l-242 -4v61l55 12q96 22 96 113v547q-63 -49 -139 -49q-33 0 -53.5 15.5t-20.5 41.5zM381 -145q109 220 462 983.5t365 789.5l152 -67 q-76 -153 -206.5 -427.5t-225 -476.5t-241.5 -519t-163 -351zM1102 195q0 45 23 84t51.5 61.5t61.5 49t46 44.5q-65 46 -94.5 72.5t-49.5 63t-20 83.5q0 100 85 162t218 62q118 0 199.5 -55.5t81.5 -145.5q0 -36 -13 -66.5t-34 -51.5t-42.5 -37.5t-43 -33.5t-31.5 -32 q168 -106 168 -230q0 -62 -29.5 -111t-76.5 -77t-99 -42.5t-104 -14.5q-124 0 -210.5 57.5t-86.5 157.5zM1286 195q0 -57 33.5 -95.5t77.5 -38.5q58 0 86 33t28 88q0 31 -14.5 62.5t-35.5 54t-41.5 40.5t-35.5 27l-14 9q-8 -13 -28.5 -41.5t-29.5 -43.5t-17.5 -41t-8.5 -54z M1313 682q0 -53 35.5 -92.5t103.5 -83.5q4 6 17.5 28t19 32.5t14 30t12 38.5t3.5 41q0 49 -30 85t-75 36q-43 0 -71.5 -31.5t-28.5 -83.5z" />
<glyph unicode="&#x215c;" horiz-adv-x="1753" d="M57 684q0 35 26.5 57.5t66.5 22.5q34 0 61 -10q-4 -20 -4 -31q0 -34 21.5 -54t56.5 -20q69 0 110 40t41 112q0 102 -74 156.5t-190 54.5l-16 57q237 64 237 205q0 40 -19.5 67t-60.5 27q-44 0 -69 -27.5t-25 -68.5q0 -28 8 -49q-33 -11 -65 -11q-45 0 -70.5 22.5 t-25.5 59.5q0 64 71 116t207 52q116 0 184 -51t68 -125q0 -151 -221 -199l2 -12q130 -22 195 -88t65 -149q0 -127 -105.5 -200t-261.5 -73q-95 0 -154 32t-59 87zM381 -145q109 220 462 983.5t365 789.5l152 -67q-76 -153 -206.5 -427.5t-225 -476.5t-241.5 -519t-163 -351z M1102 195q0 45 23 84t51.5 61.5t61.5 49t46 44.5q-65 46 -94.5 72.5t-49.5 63t-20 83.5q0 100 85 162t218 62q118 0 199.5 -55.5t81.5 -145.5q0 -36 -13 -66.5t-34 -51.5t-42.5 -37.5t-43 -33.5t-31.5 -32q168 -106 168 -230q0 -62 -29.5 -111t-76.5 -77t-99 -42.5 t-104 -14.5q-124 0 -210.5 57.5t-86.5 157.5zM1286 195q0 -57 33.5 -95.5t77.5 -38.5q58 0 86 33t28 88q0 31 -14.5 62.5t-35.5 54t-41.5 40.5t-35.5 27l-14 9q-8 -13 -28.5 -41.5t-29.5 -43.5t-17.5 -41t-8.5 -54zM1313 682q0 -53 35.5 -92.5t103.5 -83.5q4 6 17.5 28 t19 32.5t14 30t12 38.5t3.5 41q0 49 -30 85t-75 36q-43 0 -71.5 -31.5t-28.5 -83.5z" />
<glyph unicode="&#x215d;" horiz-adv-x="1753" d="M61 684q0 35 26.5 57.5t66.5 22.5q34 0 61 -10q-4 -20 -4 -31q0 -34 21.5 -54t56.5 -20q76 0 125 56t49 141t-57 136.5t-140 51.5q-30 0 -60 -9t-44 -17l-15 -9l-38 19l41 430h321q94 0 129 86l49 -10l-33 -211h-385l-16 -168q48 16 107 16q156 0 246.5 -81t90.5 -203 q0 -96 -55 -168.5t-141.5 -108t-188.5 -35.5q-95 0 -154 32t-59 87zM381 -145q109 220 462 983.5t365 789.5l152 -67q-76 -153 -206.5 -427.5t-225 -476.5t-241.5 -519t-163 -351zM1102 195q0 45 23 84t51.5 61.5t61.5 49t46 44.5q-65 46 -94.5 72.5t-49.5 63t-20 83.5 q0 100 85 162t218 62q118 0 199.5 -55.5t81.5 -145.5q0 -36 -13 -66.5t-34 -51.5t-42.5 -37.5t-43 -33.5t-31.5 -32q168 -106 168 -230q0 -62 -29.5 -111t-76.5 -77t-99 -42.5t-104 -14.5q-124 0 -210.5 57.5t-86.5 157.5zM1286 195q0 -57 33.5 -95.5t77.5 -38.5q58 0 86 33 t28 88q0 31 -14.5 62.5t-35.5 54t-41.5 40.5t-35.5 27l-14 9q-8 -13 -28.5 -41.5t-29.5 -43.5t-17.5 -41t-8.5 -54zM1313 682q0 -53 35.5 -92.5t103.5 -83.5q4 6 17.5 28t19 32.5t14 30t12 38.5t3.5 41q0 49 -30 85t-75 36q-43 0 -71.5 -31.5t-28.5 -83.5z" />
<glyph unicode="&#x215e;" horiz-adv-x="1630" d="M35 1206l51 242h590l18 -25l-207 -360q-110 -188 -110 -313q0 -44 7.5 -84.5t15.5 -59.5l8 -18q-37 -23 -82 -23q-63 0 -104.5 46.5t-41.5 111.5q0 63 30 129t103 164l230 309l-283 -14q-76 -4 -115.5 -31.5t-58.5 -83.5zM258 -145q109 220 462 983.5t365 789.5l152 -67 q-76 -153 -206.5 -427.5t-225 -476.5t-241.5 -519t-163 -351zM979 195q0 45 23 84t51.5 61.5t61.5 49t46 44.5q-65 46 -94.5 72.5t-49.5 63t-20 83.5q0 100 85 162t218 62q118 0 199.5 -55.5t81.5 -145.5q0 -36 -13 -66.5t-34 -51.5t-42.5 -37.5t-43 -33.5t-31.5 -32 q168 -106 168 -230q0 -62 -29.5 -111t-76.5 -77t-99 -42.5t-104 -14.5q-124 0 -210.5 57.5t-86.5 157.5zM1163 195q0 -57 33.5 -95.5t77.5 -38.5q58 0 86.5 33t28.5 88q0 31 -14.5 62.5t-35.5 54t-42 40.5t-35 27l-15 9q-8 -13 -28.5 -41.5t-29.5 -43.5t-17.5 -41t-8.5 -54z M1190 682q0 -53 35.5 -92.5t103.5 -83.5q4 6 17.5 28t19 32.5t14 30t12 38.5t3.5 41q0 49 -30 85t-75 36q-43 0 -71.5 -31.5t-28.5 -83.5z" />
<glyph unicode="&#x2202;" horiz-adv-x="1075" d="M49 389q0 189 129.5 319t306.5 130q67 0 118.5 -22t99 -56.5t77.5 -46.5q13 71 13 239q0 200 -86 320.5t-234 120.5q-72 0 -131 -38.5t-90 -113.5q-38 2 -76.5 32t-38.5 77q0 46 28 81t72.5 53.5t90.5 27t92 8.5q139 0 255.5 -59.5t192 -157.5t117 -223t41.5 -259 q0 -68 -8 -142t-27 -158.5t-48 -162t-74 -150t-101 -125.5t-133.5 -84.5t-167.5 -31.5q-197 0 -307.5 104.5t-110.5 317.5zM303 336q0 -44 8 -88.5t25 -88t49 -71t74 -27.5q48 0 89.5 27.5t71 74t53 103.5t39.5 121.5t28 122.5t21 111q0 5 1 8q-26 10 -57 30.5t-53 38 t-53.5 31.5t-63.5 14q-73 0 -127.5 -63.5t-79.5 -154t-25 -189.5z" />
<glyph unicode="&#x2206;" horiz-adv-x="1452" d="M68 84l606 1366l135 16l573 -1382l-49 -84h-1216zM250 137h829l-407 969z" />
</font>
</defs>
</svg>
